Loading...
Error

Осень 1993 года [1995 г., документальный, исторический, TVRip]

Статистика раздачи
Размер:  610 MB   |    Зарегистрирован:  3 года 7 месяцев   |    Скачан:  18 раз
Сидов:  1  |  0 KB/s  ]   Личеров:  0  |  0 KB/s  ]

* - сиды/пиры с внешних источников

   
 
Автор Сообщение

матроскин Пол:Муж

09-Апр-2013 10:06

Осень 1993 года


Год выпуска: 1995
Жанр: документальный, исторический
Страна: Россия
Выпущено: Делократ ТВ
Сюжет фильма:
Осень 1993 года в Москве была кровавой. Пьяница Ельцин издал незаконный указ за номером 1400,в котором прекращались полномочия Верховного Совета и он подлежал роспуску. В этом фильме вы узнаете подробности тех кровавых событий 1993 года от непосредственных участников народного восстания
Качество видео: TVRip

Продолжительность: 00:36:49
Формат: avi
Видео: DivX 4, 720x576, 2046 kbps
Аудио: русский, оригинал, MP3 2.0, 256 kbps

Код:

General
Complete name                    : C:\Users\Security\Videos\Мамонов\Осень 1993г.avi
Format                           : AVI
Format/Info                      : Audio Video Interleave
File size                        : 610 MiB
Duration                         : 36mn 49s
Overall bit rate                 : 2 315 Kbps
Writing application              : Lavf52.93.0

Video
ID                               : 0
Format                           : MPEG-4 Visual
Format profile                   : Simple@L1
Format settings, BVOP            : No
Format settings, QPel            : No
Format settings, GMC             : No warppoints
Format settings, Matrix          : Default (H.263)
Codec ID                         : DIVX
Codec ID/Info                    : Project Mayo
Codec ID/Hint                    : DivX 4
Duration                         : 36mn 48s
Bit rate                         : 2 047 Kbps
Width                            : 720 pixels
Height                           : 576 pixels
Display aspect ratio             : 5/4
Frame rate                       : 25.000 fps
Standard                         : PAL
Resolution                       : 24 bits
Colorimetry                      : 4:2:0
Scan type                        : Progressive
Bits/(Pixel*Frame)               : 0.197
Stream size                      : 539 MiB (88%)
Writing library                  : Lavc52.108.0

Audio
ID                               : 1
Format                           : MPEG Audio
Format version                   : Version 1
Format profile                   : Layer 3
Codec ID                         : 55
Codec ID/Hint                    : MP3
Duration                         : 36mn 49s
Bit rate mode                    : Constant
Bit rate                         : 256 Kbps
Channel(s)                       : 2 channels
Sampling rate                    : 44.1 KHz
Resolution                       : 16 bits
Stream size                      : 67.4 MiB (11%)
Alignment                        : Aligned on interleaves
Interleave, duration             : 26 ms (0.65 video frame)
Interleave, preload duration     : 104 ms
Writing library                  : LAME3.98.4

picpicpicpicpicpic
Для увеличения картинки щелкните мышкой по превью

Этот торрент недоступен для скачивания без регистрации, однако доступен по публичной magnet-ссылке (источники с публичных трекеров). Перед использованием ссылки прочтите, пожалуйста Пользовательское соглашение, а также как можно дольше оставайтесь на раздаче! Для того, чтобы скачать сам торрент-файл (который видит больше источников), а также для того, чтобы поблагодарить релизера, вам необходимо зарегистрироваться. Если регистрироваться лень - вы можете также попробовать скачать релиз по нашим партнерским ссылкам ниже.

[underverse.su].t25963.torrent
Трекер: Зарегистрирован   [ 09.04.2013 10:06 ]  

Статус: проверено (by Чертёнок at 09.04.2013 10:35)
Поблагодарили: 3 человека
Тип торрента: публичный - доступные источники с открытых трекеров: 
Размер: 610 MB (занимает 0,14 DVDR, для записи нужно 1 болванка DVDR/RW)
 
 


Последний раз редактировалось: матроскин (09.04.2013 10:17), всего редактировалось 1 раз

матроскин Пол:Муж

09-Апр-2013 10:09

Качайте и смотрите документальные фильмы!

.

ex0hunt 

13-Апр-2013 17:09

:good:

Яндекс.Метрика powered by Sphinx


В Н И М А Н И Е
Сайт не распространяет и не хранит электронные версии произведений, а лишь бесплатно и без коммерческой выгоды (не требуя взамен платы,
SMS и т.д.) предоставляет доступ к создаваемому пользователями каталогу ссылок на торрент-файлы, которые содержат только списки хеш-сумм.
Убедительная просьба с жалобами обращаться напрямую к пользователю, разместившему торрент файл.

Вверх