Loading...
Error

Тайные войны ЦРУ (3 серии из 3) / CIA Secret Wars [2003 г., документальный, военный, TVRip]

Статистика раздачи
Размер:  2,1 GB   |    Зарегистрирован:  3 года 7 месяцев   |    Скачан:  21 раз

Полного источника не было: 10 часов

Сидов:  0  |  0 KB/s  ]   Личеров:  0  |  0 KB/s  ]

* - сиды/пиры с внешних источников

   
 
Автор Сообщение

матроскин Пол:Муж

09-Апр-2013 09:56

Тайные войны ЦРУ (3 серии из 3) / CIA Secret Wars


Год выпуска: 2003
Жанр: документальный, военный
Страна: Франция
Режиссер: Viasat History
Сюжет фильма:
Программа представляет подробный анализ структуры и механизма работы Центрального Разведывательного Управления США, в том числе его пресловутых фиаско (Уотергейстский скандал и операция в заливе Свиней) и хронической близорукости (неспособность предвидеть рост исламского фундаментализма и терроризма, распад СССР и теракт 11 сентября). Передача исследует основы могущества ЦРУ, и предоставляет уникальную возможность проникнуть в святая святых Соединенных Штатов и увидеть, как работают их служба безопасности и правительство.
Качество видео: TVRip

Продолжительность: 00:53:05 + 00:51:41 + 00:49:52
Формат: avi
Видео: DivX 5, 720x544, 1800kbps
Аудио: русский, одноголосый закадровый [профессиональный], MP3 2.0, 160 kbps

Код:

General
Complete name                    : C:\Users\Security\Videos\Мамонов\ЦРУ1\3 серии из 3.avi
Format                           : AVI
Format/Info                      : Audio Video Interleave
File size                        : 748 MiB
Duration                         : 53mn 5s
Overall bit rate                 : 1 970 Kbps
Writing application              : VirtualDubMod 1.5.10.2 (build 2542/release)
Writing library                  : VirtualDubMod build 2542/release

Video
ID                               : 0
Format                           : MPEG-4 Visual
Format settings, BVOP            : Yes
Format settings, QPel            : No
Format settings, GMC             : No warppoints
Format settings, Matrix          : Default (H.263)
Muxing mode                      : Packed bitstream
Codec ID                         : DX50
Codec ID/Hint                    : DivX 5
Duration                         : 53mn 5s
Bit rate                         : 1 800 Kbps
Width                            : 720 pixels
Height                           : 544 pixels
Display aspect ratio             : 4/3
Frame rate                       : 25.000 fps
Resolution                       : 24 bits
Colorimetry                      : 4:2:0
Scan type                        : Progressive
Bits/(Pixel*Frame)               : 0.184
Stream size                      : 684 MiB (91%)
Writing library                  : DivX 6.8.5

Audio
ID                               : 1
Format                           : MPEG Audio
Format version                   : Version 1
Format profile                   : Layer 3
Codec ID                         : 55
Codec ID/Hint                    : MP3
Duration                         : 53mn 5s
Bit rate mode                    : Constant
Bit rate                         : 160 Kbps
Channel(s)                       : 2 channels
Sampling rate                    : 48.0 KHz
Resolution                       : 16 bits
Stream size                      : 60.8 MiB (8%)
Alignment                        : Split accross interleaves
Interleave, duration             : 40 ms (1.00 video frame)
Interleave, preload duration     : 500 ms
Writing library                  : LAME3.98.2

picpicpicpicpic
Для увеличения картинки щелкните мышкой по превью

Этот торрент недоступен для скачивания без регистрации, однако доступен по публичной magnet-ссылке (источники с публичных трекеров). Перед использованием ссылки прочтите, пожалуйста Пользовательское соглашение, а также как можно дольше оставайтесь на раздаче! Для того, чтобы скачать сам торрент-файл (который видит больше источников), а также для того, чтобы поблагодарить релизера, вам необходимо зарегистрироваться. Если регистрироваться лень - вы можете также попробовать скачать релиз по нашим партнерским ссылкам ниже.

[underverse.su].t25962.torrent
Трекер: Зарегистрирован   [ 09.04.2013 09:56 ]  

Статус: проверено (by Чертёнок at 09.04.2013 10:34)
Поблагодарили: 2 человека
Тип торрента: публичный - доступные источники с открытых трекеров: 
Размер: 2,1 GB (занимает 0,48 DVDR, для записи нужно 1 болванка DVDR/RW)
 
 


Последний раз редактировалось: матроскин (05.05.2013 09:57), всего редактировалось 1 раз

матроскин Пол:Муж

09-Апр-2013 09:58

Качайте и смотрите интересное документальное кино
.

Яндекс.Метрика powered by Sphinx


В Н И М А Н И Е
Сайт не распространяет и не хранит электронные версии произведений, а лишь бесплатно и без коммерческой выгоды (не требуя взамен платы,
SMS и т.д.) предоставляет доступ к создаваемому пользователями каталогу ссылок на торрент-файлы, которые содержат только списки хеш-сумм.
Убедительная просьба с жалобами обращаться напрямую к пользователю, разместившему торрент файл.

Вверх