Loading...
Error

Охота / Jagten (Томас Винтерберг) [2012 г., драма, BDRip] MVO + Original(Dan) HQ Underverse

Статистика раздачи
Размер:  2,17 GB   |    Зарегистрирован:  3 года 7 месяцев   |    Скачан:  39 раз
Сидов:  1  |  0 KB/s  ]   Личеров:  0  |  0 KB/s  ]

* - сиды/пиры с внешних источников

   
 
Автор Сообщение

HQ Underverse 

09-Апр-2013 06:35

Охота / Jagten


Год выпуска: 2012
Жанр: драма
Страна: Дания
Режиссер: Томас Винтерберг
В ролях: Мадс Миккельсен, Томас Бо Ларсен, Анника Веддеркопп, Лассе Фогельстрём, Суссе Вольд, Анне Луизе Хассинг, Ларс Ранте, Александра Рапапорт, Оле Дюпон, Рикке Бергманн
Сюжет фильма:
После мучительного развода 40-летний Лукас находит новую подругу, новую работу и стремится восстановить отношения со своим сыном-подростком Маркусом. Но ему что-то мешает… Что-то, казалось бы, незначительное. Замечание, сделанное между прочим. Мелкая ложь. И вот накануне Рождества, когда падает снег и зажигаются огни на елке, ложь разрастается и проникает повсюду, как невидимый вирус. Растет недоверие, и все вокруг оказываются в состоянии коллективной истерии. Лукас вынужден бороться за свою жизнь и достоинство.

  • Мировая премьера: 20 мая 2012
  • Российская премьера: 21 февраля 2013, «Русский репортаж»

/
Качество видео: BDRip

Продолжительность: 01:50:45
Формат: avi
Видео: XviD, 720x304, 1891 kbps
Аудио #1: русский, многоголосый закадровый [профессиональный, R5], AC3 5.1, 448 kbps
Аудио #2: датский, оригинал, AC3 5.1, 448 kbps

Код:

General
Complete name                    : G:\Охота\The.Hunt.2012.BDRip.XviD.AC3.Rus.P.Dan.O.HQ.Underverse.avi
Format                           : AVI
Format/Info                      : Audio Video Interleave
Format profile                   : OpenDML
File size                        : 2.17 GiB
Duration                         : 1h 50mn
Overall bit rate                 : 2 806 Kbps
Writing application              : VirtualDubMod 1.5.10.2 (build 2540/release)
Writing library                  : VirtualDubMod build 2540/release

Video
ID                               : 0
Format                           : MPEG-4 Visual
Format profile                   : Streaming Video@L1
Format settings, BVOP            : Yes
Format settings, QPel            : No
Format settings, GMC             : No warppoints
Format settings, Matrix          : Custom
Muxing mode                      : Packed bitstream
Codec ID                         : XVID
Codec ID/Hint                    : XviD
Duration                         : 1h 50mn
Bit rate                         : 1 892 Kbps
Width                            : 720 pixels
Height                           : 304 pixels
Display aspect ratio             : 2.35
Frame rate                       : 25.000 fps
Resolution                       : 24 bits
Colorimetry                      : 4:2:0
Scan type                        : Progressive
Bits/(Pixel*Frame)               : 0.346
Stream size                      : 1.46 GiB (67%)
Writing library                  : XviD 64

Audio #1
ID                               : 1
Format                           : AC-3
Format/Info                      : Audio Coding 3
Codec ID                         : 2000
Duration                         : 1h 50mn
Bit rate mode                    : Constant
Bit rate                         : 448 Kbps
Channel(s)                       : 6 channels
Channel positions                : Front: L C R, Surround: L R, LFE
Sampling rate                    : 48.0 KHz
Stream size                      : 355 MiB (16%)
Alignment                        : Split accross interleaves
Interleave, duration             : 40 ms (1.00 video frame)
Interleave, preload duration     : 500 ms

Audio #2
ID                               : 2
Format                           : AC-3
Format/Info                      : Audio Coding 3
Codec ID                         : 2000
Duration                         : 1h 50mn
Bit rate mode                    : Constant
Bit rate                         : 448 Kbps
Channel(s)                       : 6 channels
Channel positions                : Front: L C R, Surround: L R, LFE
Sampling rate                    : 48.0 KHz
Stream size                      : 355 MiB (16%)
Alignment                        : Split accross interleaves
Interleave, duration             : 40 ms (1.00 video frame)
Interleave, preload duration     : 500 ms

Релиз группы:

picpicpic
Для увеличения картинки щелкните мышкой по превью

Этот торрент недоступен для скачивания без регистрации, однако доступен по публичной magnet-ссылке (источники с публичных трекеров). Перед использованием ссылки прочтите, пожалуйста Пользовательское соглашение, а также как можно дольше оставайтесь на раздаче! Для того, чтобы скачать сам торрент-файл (который видит больше источников), а также для того, чтобы поблагодарить релизера, вам необходимо зарегистрироваться. Если регистрироваться лень - вы можете также попробовать скачать релиз по нашим партнерским ссылкам ниже.

[underverse.su].t25954.torrent
Трекер: Зарегистрирован   [ 09.04.2013 06:35 ]  

Статус: проверено (by HQ Underverse at 09.04.2013 06:35)
Поблагодарили: 2 человека
Тип торрента: публичный - доступные источники с открытых трекеров: 
Размер: 2,17 GB (занимает 1/2 DVDR, для записи нужно 1 болванка DVDR/RW)
 
 
Похожие темы
Форум Тема Автор Торрент Отв. Посл. сооб.
Зарубежное кино [DVDRip, Low-Res HDRip, и т.д.] Охота / Jagten (Томас Винтерберг / Thomas Vinterberg) [2012, Дания, драма, HDRip] MVO 90ytr90
0 | 0

0 | 1261

20

22.02.2013 13:03

Зарубежное кино [DVDRip, Low-Res HDRip, и т.д.] Охота / Jagten (Томас Винтерберг / Thomas Vinterberg) [2012, Дания, драма, WEB-DLRip] MVO 90ytr90
0 | 0

0 | 2318

29

24.02.2013 15:04

Зарубежное кино [DVDRip, Low-Res HDRip, и т.д.] Охота / Jagten (Томас Винтерберг) [2012 г., драма, HDRip] MVO + Dan 90ytr90
8 | 0

3 | 1096

43

03.10.2013 12:21

Semitone 

13-Апр-2013 05:45

2 ой день (так ради итереса)Connecting to peers...Качать через Media Get?)))))) :oops:
так -то очень хочется посмотреть.Остальные,кстати торренты цепляет и всё тип-топ.может перезалить стоит?

Яндекс.Метрика powered by Sphinx


В Н И М А Н И Е
Сайт не распространяет и не хранит электронные версии произведений, а лишь бесплатно и без коммерческой выгоды (не требуя взамен платы,
SMS и т.д.) предоставляет доступ к создаваемому пользователями каталогу ссылок на торрент-файлы, которые содержат только списки хеш-сумм.
Убедительная просьба с жалобами обращаться напрямую к пользователю, разместившему торрент файл.

Вверх