Loading...
Error

Невеста моего жениха (Владимир Потапов) [2013 г., мелодрама, SATRip]

Статистика раздачи
Размер:  1,13 GB   |    Зарегистрирован:  3 года 7 месяцев   |    Скачан:  22 раза

Полного источника не было: 2 года 10 месяцев

Сидов:  0  |  0 KB/s  ]   Личеров:  0  |  0 KB/s  ]

* - сиды/пиры с внешних источников

   
 
Автор Сообщение

RG NewCinema 

08-Апр-2013 14:07

Невеста моего жениха


Оригинальное название: Невеста моего жениха
Год выпуска: 2013
Жанр: мелодрама
Выпущено: Россия, кинокомпания "Русское"
Режиссер: Владимир Потапов
В ролях: Татьяна Федоровская, Александр Константинов, Мария Кононова, Людмила Гаврилова (II), Владимир Жеребцов, Екатерина Травова, Евгения Крылова, Юрий Мосейчук, Наталья Унгард, Ирина Померанцева, Сергей Серов, Сергей Погосян

О фильме: Юля молода, красива и успешна в карьере, но личного счастья в ее жизни давно нет. Три года назад она отказалась уехать в провинцию со своим женихом Вадимом, предпочтя выгодную работу в столице, но найти ему достойную замену так и не смогла. После очередной неудачной попытки у Юли происходит переоценка ценностей и девушка решает вернуться к проверенному временем и бесконечно любящему ее Вадиму. Однако героиню ждут плохие новости: молодой человек встретил свою любовь и вот-вот женится на другой. Привыкшая побеждать, Юля решает не сдаваться без боя: она бросает всё и едет в сибирское захолустье в полной решимости вернуть «лучшего мужчину своей жизни»..

Качество: SATRip
Видео: XviD, ~ 1515 Кбит/с, 720x384
Аудио: MP3, 2 ch, 192 Кбит/с
Продолжительность: 01:34:34
Язык: Русский

Код:

General
Complete name                            : F:\Nevesta.moego.zheniha.2013.SATRip.Getty.avi
Format                                   : AVI
Format/Info                              : Audio Video Interleave
File size                                : 1.13 GiB
Duration                                 : 1h 34mn
Overall bit rate                         : 1 717 Kbps

Video
ID                                       : 0
Format                                   : MPEG-4 Visual
Format profile                           : Advanced Simple@L5
Format settings, BVOP                    : 1
Format settings, QPel                    : No
Format settings, GMC                     : No warppoints
Format settings, Matrix                  : Default (H.263)
Muxing mode                              : Packed bitstream
Codec ID                                 : XVID
Codec ID/Hint                            : XviD
Duration                                 : 1h 34mn
Bit rate                                 : 1 515 Kbps
Width                                    : 720 pixels
Height                                   : 384 pixels
Display aspect ratio                     : 1.85:1
Frame rate                               : 25.000 fps
Color space                              : YUV
Chroma subsampling                       : 4:2:0
Bit depth                                : 8 bits
Scan type                                : Progressive
Compression mode                         : Lossy
Bits/(Pixel*Frame)                       : 0.219
Stream size                              : 1.00 GiB (88%)
Writing library                          : XviD 64

Audio
ID                                       : 1
Format                                   : MPEG Audio
Format version                           : Version 1
Format profile                           : Layer 3
Mode                                     : Joint stereo
Mode extension                           : MS Stereo
Codec ID                                 : 55
Codec ID/Hint                            : MP3
Duration                                 : 1h 34mn
Bit rate mode                            : Constant
Bit rate                                 : 192 Kbps
Channel(s)                               : 2 channels
Sampling rate                            : 48.0 KHz
Compression mode                         : Lossy
Stream size                              : 130 MiB (11%)
Alignment                                : Split accross interleaves
Interleave, duration                     : 40 ms (1.00 video frame)
Interleave, preload duration             : 500 ms
pic pic pic
Для увеличения картинки щелкните мышкой по превью

Этот торрент недоступен для скачивания без регистрации, однако доступен по публичной magnet-ссылке (источники с публичных трекеров). Перед использованием ссылки прочтите, пожалуйста Пользовательское соглашение, а также как можно дольше оставайтесь на раздаче! Для того, чтобы скачать сам торрент-файл (который видит больше источников), а также для того, чтобы поблагодарить релизера, вам необходимо зарегистрироваться. Если регистрироваться лень - вы можете также попробовать скачать релиз по нашим партнерским ссылкам ниже.

[underverse.su].t25941.torrent
Трекер: Зарегистрирован   [ 08.04.2013 14:07 ]  

Статус: проверено (by Паукан at 08.04.2013 14:56)
Поблагодарили: 1 человек
Тип торрента: публичный - доступные источники с открытых трекеров: 
Размер: 1,13 GB (занимает 0,26 DVDR, для записи нужно 1 болванка DVDR/RW)
 
 

Яндекс.Метрика powered by Sphinx


В Н И М А Н И Е
Сайт не распространяет и не хранит электронные версии произведений, а лишь бесплатно и без коммерческой выгоды (не требуя взамен платы,
SMS и т.д.) предоставляет доступ к создаваемому пользователями каталогу ссылок на торрент-файлы, которые содержат только списки хеш-сумм.
Убедительная просьба с жалобами обращаться напрямую к пользователю, разместившему торрент файл.

Вверх