Loading...
Error

Точка взрыва / Серии: 1-4 [4] (Дмитрий Кузьмин) [2013 г., мелодрама, криминал, SatRip]

Статистика раздачи
Размер:  1,95 GB   |    Зарегистрирован:  3 года 7 месяцев   |    Скачан:  10 раз

Полного источника не было: 1 год 3 месяца

Сидов:  0  |  0 KB/s  ]   Личеров:  0  |  0 KB/s  ]

* - сиды/пиры с внешних источников

   
 
Автор Сообщение

nemos Пол:Муж

08-Апр-2013 02:38

Точка взрыва


Год выпуска: 2013
Жанр: мелодрама, криминал
Страна: Россия
Режиссер: Дмитрий Кузьмин
В ролях: Дмитрий Певцов, Никита Панфилов, Ирина Линдт, Сослан Фидаров, Людмила Гаврилова, Валентина Шарыкина, Игорь Воробьев, Михаил Окунев, Александр КатинИлья Трусковский,
Сюжет фильма:
Будни инженерно-саперного отдела: майор Денис Крамер и его команда, ежедневно рискуя собой, обезвреживают оставшиеся с войны бомбы, снаряды и другие взрывные устройства, способные унести десятки человеческих жизней. Денис - первоклассный сапер с очень непростым характером. Он разрывается между семьей и любимой женщиной. А еще в жизнь Дениса "врывается" история из прошлого, и это прошлое "настигает" его, угрожая близким Крамера. Но и из этой схватки он выходит победителем.


Качество видео: SatRip

Продолжительность: 00:44:46 серия
Формат: AVI
Видео: XviD, 720x400 , 1424 kbps
Аудио: русский, MP3 2.0, 128 kbps

Код:

F:\С underverse-3 Фильмы\Tochka.vzriva.2013.XviD.SATRip.SCTeam\Tochka.vzriva.(4.serija.iz.4).2013.XviD.SATRip.SCTeam.avi
   General
      Complete name : F:\С underverse-3 Фильмы\Tochka.vzriva.2013.XviD.SATRip.SCTeam\Tochka.vzriva.(4.serija.iz.4).2013.XviD.SATRip.SCTeam.avi
      Format : AVI
      Format/Info : Audio Video Interleave
      File size : 500 MiB
      Duration : 44mn 46s
      Overall bit rate : 1 562 Kbps
      Writing application : VirtualDubMod 1.5.10.2 (build 2540/release)
      Writing library : VirtualDubMod build 2540/release
   Video #0
      ID : 0
      Format : MPEG-4 Visual
      Format profile : Advanced Simple@L5
      Format settings, BVOP : 2
      Format settings, QPel : No
      Format settings, GMC : No warppoints
      Format settings, Matrix : Default (MPEG)
      Codec ID : XVID
      Codec ID/Hint : XviD
      Duration : 44mn 46s
      Bit rate : 1 424 Kbps
      Width : 720 pixels
      Height : 400 pixels
      Display aspect ratio : 16:9
      Frame rate : 25.000 fps
      Color space : YUV
      Chroma subsampling : 4:2:0
      Bit depth : 8 bits
      Scan type : Progressive
      Compression mode : Lossy
      Bits/(Pixel*Frame) : 0.198
      Stream size : 456 MiB (91%)
      Writing library : XviD 65
   Audio #1
      ID : 1
      Format : MPEG Audio
      Format version : Version 1
      Format profile : Layer 3
      Mode : Joint stereo
      Mode extension : MS Stereo
      Codec ID : 55
      Codec ID/Hint : MP3
      Duration : 44mn 46s
      Bit rate mode : Constant
      Bit rate : 128 Kbps
      Channel(s) : 2 channels
      Sampling rate : 48.0 KHz
      Compression mode : Lossy
      Stream size : 41.0 MiB (8%)
      Alignment : Aligned on interleaves
      Interleave, duration : 40 ms (1.00 video frame)
      Interleave, preload duration : 504 ms
Семпл: http://multi-up.com/851892

picpicpicpicpicpicpicpicpicpicpicpicpicpicpicpicpicpicpic
Для увеличения картинки щелкните мышкой по превью
Сериал который был выложен и зарегистрирован более двух месяцев назад буду раздавать с 23.00ч до 06.00ч утра ( вина в этом немоя, а пользователей которые неподдерживают раздачу)

Этот торрент недоступен для скачивания без регистрации, однако доступен по публичной magnet-ссылке (источники с публичных трекеров). Перед использованием ссылки прочтите, пожалуйста Пользовательское соглашение, а также как можно дольше оставайтесь на раздаче! Для того, чтобы скачать сам торрент-файл (который видит больше источников), а также для того, чтобы поблагодарить релизера, вам необходимо зарегистрироваться. Если регистрироваться лень - вы можете также попробовать скачать релиз по нашим партнерским ссылкам ниже.

[underverse.su].t25918.torrent
Трекер: Зарегистрирован   [ 08.04.2013 02:38 ]  

Статус: проверено (by Чертёнок at 08.04.2013 13:27)
Поблагодарили: пока никто не поблагодарил...
Тип торрента: публичный - доступные источники с открытых трекеров: 
Размер: 1,95 GB (занимает 0,45 DVDR, для записи нужно 1 болванка DVDR/RW)
 
 
Похожие темы
Форум Тема Автор Торрент Отв. Посл. сооб.
xUSSR сериалы Точка взрыва / Серии 1-4 (4) (Дмитрий Кузьмин) [2013 г., Боевик, HDTVRip] Чертёнок
11 | 1

0 | 1195

10

08.04.2013 17:09


Яндекс.Метрика powered by Sphinx


В Н И М А Н И Е
Сайт не распространяет и не хранит электронные версии произведений, а лишь бесплатно и без коммерческой выгоды (не требуя взамен платы,
SMS и т.д.) предоставляет доступ к создаваемому пользователями каталогу ссылок на торрент-файлы, которые содержат только списки хеш-сумм.
Убедительная просьба с жалобами обращаться напрямую к пользователю, разместившему торрент файл.

Вверх