Loading...
Error

Время Синдбада / Сезон: 4 / Серии: 1-24(24) (Ким Дружинин, Ольга Кандидатова, Кирилл Капица) [2013, Криминал, Детектив, Приключения, SATRip]

Статистика раздачи
Размер:  12,88 GB   |    Зарегистрирован:  3 года 7 месяцев   |    Скачан:  16 раз

Полного источника не было: 1 год 3 месяца

Сидов:  0  |  0 KB/s  ]   Личеров:  0  |  0 KB/s  ]

* - сиды/пиры с внешних источников

   
 
Автор Сообщение

nemos Пол:Муж

07-Апр-2013 08:04

Время Синдбада


Год выпуска: 2013
Жанр: Криминал, Детектив, Приключения
Страна: Россия
Режиссер: Ким Дружинин, Ольга Кандидатова, Кирилл Капица
В ролях: Андрей Смелов, Валерий Гришко, Игорь Иванов, Яков Кучеревский, Александр Блок, Арсений Мыцык, Татьяна Шахматова, Маргарита Бычкова, Андрей Аверков, Марьяна Анохина, Петр Капица, Кирилл Капица, Петр Журавлёв, Михаил Елисеев, Владимир Щербаков, Константин Телегин, Анна Вартанян, Анна Арефьева
Сюжет фильма:
Российским спецслужбам удается сорвать планы владельца крупного оружейного концерна Хвостова, который решил ради прибыли спровоцировать в Европе новый виток гонки вооружений. Хвостов играет по-крупному - организует убийство несговорчивого российского спецпредставителя при НАТО и взрыв в штаб-квартире организации в Брюсселе. Синдбаду, Щепкину и Неверову придётся заняться этим делом. Также их команде придётся участвовать в обезвреживании международной преступной группы. Однажды генералу ФСБ Раздрогину назначил встречу осведомитель из Амстердама, который что-то знал о тайном грузе, плывущим в Петербург. Однако до встречи шпион не дожил. Теперь единственными зацепками для спецслужб служит sms-сообщение от него в одно слово: «Эскалибур» и знак английского фунта.
Качество видео: SatRip

Продолжительность: 00:45:01серия
Формат: AVI
Видео: XviD, 704x400, 1 531kbps
Аудио: русский, MP3 2.0, 128 kbps

Код:

F:\С underverse-3 Фильмы\Vremja.Sindbada\Vremja.Sindbada.24.2013.SATRip.RiperAM.avi
   General
      Complete name : F:\С underverse-3 Фильмы\Vremja.Sindbada\Vremja.Sindbada.24.2013.SATRip.RiperAM.avi
      Format : AVI
      Format/Info : Audio Video Interleave
      File size : 550 MiB
      Duration : 46mn 1s
      Overall bit rate : 1 669 Kbps
      Writing application : VirtualDubMod 1.5.10.3 | www.virtualdub-fr.org || (build 2550/release)
      Writing library : VirtualDubMod build 2550/release
   Video #0
      ID : 0
      Format : MPEG-4 Visual
      Format profile : Advanced Simple@L5
      Format settings, BVOP : 2
      Format settings, QPel : No
      Format settings, GMC : No warppoints
      Format settings, Matrix : Default (MPEG)
      Codec ID : XVID
      Codec ID/Hint : XviD
      Duration : 46mn 1s
      Bit rate : 1 531 Kbps
      Width : 704 pixels
      Height : 400 pixels
      Display aspect ratio : 16:9
      Frame rate : 25.000 fps
      Color space : YUV
      Chroma subsampling : 4:2:0
      Bit depth : 8 bits
      Scan type : Progressive
      Compression mode : Lossy
      Bits/(Pixel*Frame) : 0.218
      Stream size : 504 MiB (92%)
      Writing library : XviD 65
   Audio #1
      ID : 1
      Format : MPEG Audio
      Format version : Version 1
      Format profile : Layer 3
      Mode : Joint stereo
      Codec ID : 55
      Codec ID/Hint : MP3
      Duration : 46mn 1s
      Bit rate mode : Constant
      Bit rate : 128 Kbps
      Channel(s) : 2 channels
      Sampling rate : 48.0 KHz
      Compression mode : Lossy
      Stream size : 42.1 MiB (8%)
      Alignment : Aligned on interleaves
      Interleave, duration : 40 ms (1.00 video frame)
      Interleave, preload duration : 504 ms
Семпл: http://multi-up.com/845078

picpicpicpicpicpicpicpicpicpicpicpic
Для увеличения картинки щелкните мышкой по превью
Сериал который был выложен и зарегистрирован более двух месяцев назад буду раздавать с 23.00ч до 06.00ч утра ( вина в этом немоя, а пользователей которые неподдерживают раздачу)

Этот торрент недоступен для скачивания без регистрации, однако доступен по публичной magnet-ссылке (источники с публичных трекеров). Перед использованием ссылки прочтите, пожалуйста Пользовательское соглашение, а также как можно дольше оставайтесь на раздаче! Для того, чтобы скачать сам торрент-файл (который видит больше источников), а также для того, чтобы поблагодарить релизера, вам необходимо зарегистрироваться. Если регистрироваться лень - вы можете также попробовать скачать релиз по нашим партнерским ссылкам ниже.

[underverse.su].t26018.torrent
Трекер: Зарегистрирован   [ 10.04.2013 19:16 ]  

Статус: проверено (by Чертёнок at 11.04.2013 00:04)
Поблагодарили: 3 человека
Тип торрента: публичный - доступные источники с открытых трекеров: 
Размер: 12,88 GB (занимает 2,94 DVDR, для записи нужно 3 болванки DVDR/RW)
 
 


Последний раз редактировалось: nemos (06.11.2014 11:28), всего редактировалось 4 раз(а)

nemos Пол:Муж

09-Апр-2013 19:38

Торрент обновлен(22)

Яндекс.Метрика powered by Sphinx


В Н И М А Н И Е
Сайт не распространяет и не хранит электронные версии произведений, а лишь бесплатно и без коммерческой выгоды (не требуя взамен платы,
SMS и т.д.) предоставляет доступ к создаваемому пользователями каталогу ссылок на торрент-файлы, которые содержат только списки хеш-сумм.
Убедительная просьба с жалобами обращаться напрямую к пользователю, разместившему торрент файл.

Вверх