Loading...
Error

Невидимый фронт (части 43-48) [2008 г., документальный, военный, TVRip]

Статистика раздачи
Размер:  1,48 GB   |    Зарегистрирован:  3 года 8 месяцев   |    Скачан:  14 раз

Полного источника не было: 4 часа

Сидов:  0  |  0 KB/s  ]   Личеров:  0  |  0 KB/s  ]

* - сиды/пиры с внешних источников

   
 
Автор Сообщение

матроскин Пол:Муж

06-Апр-2013 09:36

Невидимый фронт (части 43-48)


Год выпуска: 2008
Жанр: документальный, военный
Страна: Россия
Режиссер: Афанасий Котов
Сюжет фильма:
Сколько тайн у современной истории? Миллионы. Малую толику из них мы раскроем в фильмах «Невидимый фронт». Проект создан при содействии специальных служб Беларуссии и России, использованы архивы, записаны интервью легендарных личностей и авторитетных экспертов. Каждый фильм содержит уникальную информацию, редкие, а то и эксклюзивные видеокадры. Все герои фильмов связаны невидимыми узами с государством и ведут невидимую борьбу на невидимом фронте. Весь цикл разбит на тематические группы «Битва разведок», «КГБ и ГРУ в Афганистане», «Линия войны», «Партизанский фронт», «Рожденные революцией», «Холодная война». Сериал является крупнейшим систематизированным обобщением уникальных исторических материалов в области разведки и военных операций.
В проекте, созданном при содействии спецслужб Беларуси и России, используются уникальные сведения архивов секретных материалов СССР, в основном хранящихся в России. Цикл фильмов охватывает широкий диапазон времени - от террористов и партизан XIX века до современных антитеррористических формирований. Герои фильма - люди, чья важная и зачастую очень опасная деятельность по понятным причинам остается "в тени" - бойцы "невидимого фронта" от агентов царской охранки до разведчиков ХХI века.
Качество видео: TVRip

Продолжительность: 6 х 13:10:17
Формат: avi
Видео: DivX 4, 720x576, 976 kbps
Аудио: русский, оригинал, MP3 2.0, 256 kbps

Код:

General
Complete name                    : C:\Users\Security\Videos\Мамонов\43-48 части.avi
Format                           : AVI
Format/Info                      : Audio Video Interleave
Format profile                   : OpenDML
File size                        : 1.48 GiB
Duration                         : 3h 15mn
Overall bit rate                 : 1 083 Kbps
Writing application              : Lavf52.93.0

Video
ID                               : 0
Format                           : MPEG-4 Visual
Format profile                   : Simple@L1
Format settings, BVOP            : No
Format settings, QPel            : No
Format settings, GMC             : No warppoints
Format settings, Matrix          : Default (H.263)
Codec ID                         : DIVX
Codec ID/Info                    : Project Mayo
Codec ID/Hint                    : DivX 4
Duration                         : 3h 15mn
Bit rate                         : 976 Kbps
Width                            : 720 pixels
Height                           : 576 pixels
Display aspect ratio             : 16/9
Frame rate                       : 25.000 fps
Standard                         : PAL
Resolution                       : 24 bits
Colorimetry                      : 4:2:0
Scan type                        : Progressive
Bits/(Pixel*Frame)               : 0.094
Stream size                      : 1.34 GiB (90%)
Writing library                  : Lavc52.108.0

Audio
ID                               : 1
Format                           : MPEG Audio
Format version                   : Version 1
Format profile                   : Layer 3
Codec ID                         : 55
Codec ID/Hint                    : MP3
Duration                         : 1h 17mn
Bit rate mode                    : Constant
Bit rate                         : 256 Kbps
Channel(s)                       : 2 channels
Sampling rate                    : 44.1 KHz
Resolution                       : 16 bits
Stream size                      : 142 MiB (9%)
Alignment                        : Aligned on interleaves
Interleave, duration             : 26 ms (0.65 video frame)
Interleave, preload duration     : 52 ms
Writing library                  : LAME

picpicpicpicpic
Для увеличения картинки щелкните мышкой по превью

Этот торрент недоступен для скачивания без регистрации, однако доступен по публичной magnet-ссылке (источники с публичных трекеров). Перед использованием ссылки прочтите, пожалуйста Пользовательское соглашение, а также как можно дольше оставайтесь на раздаче! Для того, чтобы скачать сам торрент-файл (который видит больше источников), а также для того, чтобы поблагодарить релизера, вам необходимо зарегистрироваться. Если регистрироваться лень - вы можете также попробовать скачать релиз по нашим партнерским ссылкам ниже.

[underverse.su].t25862.torrent
Трекер: Зарегистрирован   [ 06.04.2013 09:36 ]  

Статус: проверено (by Чертёнок at 06.04.2013 09:57)
Поблагодарили: пока никто не поблагодарил...
Тип торрента: публичный - доступные источники с открытых трекеров: 
Размер: 1,48 GB (занимает 0,34 DVDR, для записи нужно 1 болванка DVDR/RW)
 
 
Похожие темы
Форум Тема Автор Торрент Отв. Посл. сооб.
Зарубежное кино [DVDRip, Low-Res HDRip, и т.д.] Невидимый мальчик / Il ragazzo invisibile (Габриэле Сальваторес) [2014 г., фантастика, фэнтези, комедия, приключения, DVDRip] VO makkol
98 | 5

0 | 978

21

17.06.2016 11:01

Военные хроники Невидимый фронт (часть 1) [2008 г., документальный, военный, TVRip] матроскин
0 | 0

2 | 1363

31

07.05.2016 19:42

Военные хроники Невидимый фронт (части 2-6) [2008 г., документальный, военный, TVRip] матроскин
0 | 0

1 | 1116

21

06.04.2013 09:46

Военные хроники Невидимый фронт (части 7 - 12) [2008 г., документальный, военный, TVRip] матроскин
1 | 0

1 | 1515

20

06.04.2013 09:47

Военные хроники Невидимый фронт (части 13-18) [2008 г., документальный, военный, TVRip] матроскин
0 | 0

1 | 1115

16

06.04.2013 09:47

Военные хроники Невидимый фронт (части 19-24) [2008 г., документальный, военный, TVRip] матроскин
0 | 0

1 | 1068

17

06.04.2013 09:48

Военные хроники Невидимый фронт (части 25-30) [2008 г., документальный, военный, TVRip] матроскин
0 | 0

1 | 1040

14

06.04.2013 09:49

Военные хроники Невидимый фронт (части 31-36) [2008 г., документальный, TVRip] матроскин
0 | 0

1 | 1370

14

06.04.2013 09:49

Военные хроники Невидимый фронт (части 37-42) [2008 г., документальный, военный, TVRip] матроскин
1 | 0

1 | 1072

14

06.04.2013 09:50

Военные хроники Невидимый фронт (части 49-53) [2008 г., документальный, военный, TVRip] матроскин
1 | 0

1 | 1244

20

06.04.2013 09:51

матроскин Пол:Муж

06-Апр-2013 09:50

Качайте и смотрите интересное документальное кино
.

Яндекс.Метрика powered by Sphinx


В Н И М А Н И Е
Сайт не распространяет и не хранит электронные версии произведений, а лишь бесплатно и без коммерческой выгоды (не требуя взамен платы,
SMS и т.д.) предоставляет доступ к создаваемому пользователями каталогу ссылок на торрент-файлы, которые содержат только списки хеш-сумм.
Убедительная просьба с жалобами обращаться напрямую к пользователю, разместившему торрент файл.

Вверх