Loading...
Error

Месть пророка / Завет девяти пророков (Юнус Юсупов) [1993 г., приключения, VHSRip]

Статистика раздачи
Размер:  1,46 GB   |    Зарегистрирован:  3 года 7 месяцев   |    Скачан:  9 раз

Полного источника не было: 2 года 1 месяц

Сидов:  0  |  0 KB/s  ]   Личеров:  0  |  0 KB/s  ]

* - сиды/пиры с внешних источников

   
 
Автор Сообщение

RG NewCinema 

05-Апр-2013 14:51

Месть пророка / Завет девяти пророков


Оригинальное название: Завет девяти пророков (Месть пророка)
Год выхода: 1993
Жанр: приключения
Режиссер: Юнус Юсупов
В ролях: Борис Хмельницкий, Бахрам Акрамов, Анатолий Ромашин, Даврон Алиматов, Венера Азизова, Абу Ганем, Хасан Ганем, Муфид Ганем, Мусо Исоев, Иса Исса, Елена Катышева
О фильме: При раскопках древнего монастыря в Сирии обнаружили потайной ход, который ведет, как гласит легенда, к сокровищам, хранящимися в течение столетий под девятью магическими печатями. В них — завещание, указывающее потомкам единственный путь к сохранению мира и жизни на земле. Правительство Сирии и ЮНЕСКО направляют на раскопки международную экспедицию. Ну и, конечно, под видом востоковеда туда же отправляется злодей, замысливший похитить сокровища. Он еще не знает, что проклятье падет на голову того, кто прикоснется к богатствам. Пророки предупреждали, что только чистому духом человеку дано получить их наследие…

Страна: Таджикистан, Сирия
Студия: Таджикфильм, Ganemfilm
Продолжительность: 02:05:26
Перевод: Дублированный
Субтитры: Нет

Файл
Тип релиза: VHSRip
Видео: 640x480 (1.33:1), 25 fps, XviD ~1528 kbps avg, 0.20 bit/pixel
Аудио: 44.100 kHz, 2.0, ~128.00 kbps avg

Семпл


Формат : AVI
Формат/Информация : Audio Video Interleave
Размер файла : 1,46 Гбайт
Продолжительность : 2 ч. 5 м.
Общий поток : 1663 Кбит/сек
Программа кодирования : VirtualDubMod 1.5.4.1 (build 2178/release)
Библиотека кодирования : VirtualDubMod build 2178/release

Видео
Идентификатор : 0
Формат : MPEG-4 Visual
Профиль формата : Advanced Simple@L5
Параметр BVOP формата : 1
Параметр QPel формата : Нет
Параметр GMC формата : Без точки перехода
Параметр матрицы формата : Выборочная
Идентификатор кодека : XVID
Идентификатор кодека/Подсказка : XviD
Продолжительность : 2 ч. 5 м.
Битрейт : 1528 Кбит/сек
Ширина : 640 пикселей
Высота : 480 пикселей
Соотношение сторон : 4:3
Частота кадров : 25,000 кадров/сек
Цветовое пространство : YUV
Субдискретизация насыщенности : 4:2:0
Битовая глубина : 8 бит
Тип развёртки : Прогрессивная
Метод сжатия : С потерями
Бит/(Пиксели*Кадры) : 0.199
Размер потока : 1,34 Гбайт (92%)
Библиотека кодирования : XviD 64

Аудио
Идентификатор : 1
Формат : MPEG Audio
Версия формата : Version 1
Профиль формата : Layer 3
Режим : Joint stereo
Расширение режима : MS Stereo
Идентификатор кодека : 55
Идентификатор кодека/Подсказка : MP3
Продолжительность : 2 ч. 5 м.
Вид битрейта : Постоянный
Битрейт : 128 Кбит/сек
Каналы : 2 канала
Частота : 44,1 КГц
Метод сжатия : С потерями
Размер потока : 115 Мбайт (8%)
Выравнивание : Разделение по промежуткам
Продолжительность промежутка : 80 мс. (2,00 видеокадра)
Время предзагрузки промежутка : 500 мс.
Библиотека кодирования : LAME3.98r
Настройки программы : -m j -V 4 -q 2 -lowpass 17 -b 128
pic pic pic
Для увеличения картинки щелкните мышкой по превью

Этот торрент недоступен для скачивания без регистрации, однако доступен по публичной magnet-ссылке (источники с публичных трекеров). Перед использованием ссылки прочтите, пожалуйста Пользовательское соглашение, а также как можно дольше оставайтесь на раздаче! Для того, чтобы скачать сам торрент-файл (который видит больше источников), а также для того, чтобы поблагодарить релизера, вам необходимо зарегистрироваться. Если регистрироваться лень - вы можете также попробовать скачать релиз по нашим партнерским ссылкам ниже.

[underverse.su].t25832.torrent
Трекер: Зарегистрирован   [ 05.04.2013 14:51 ]  

Статус: проверено (by Чертёнок at 05.04.2013 16:03)
Поблагодарили: 1 человек
Тип торрента: публичный - доступные источники с открытых трекеров: 
Размер: 1,46 GB (занимает 1/3 DVDR, для записи нужно 1 болванка DVDR/RW)
 
 

Яндекс.Метрика powered by Sphinx


В Н И М А Н И Е
Сайт не распространяет и не хранит электронные версии произведений, а лишь бесплатно и без коммерческой выгоды (не требуя взамен платы,
SMS и т.д.) предоставляет доступ к создаваемому пользователями каталогу ссылок на торрент-файлы, которые содержат только списки хеш-сумм.
Убедительная просьба с жалобами обращаться напрямую к пользователю, разместившему торрент файл.

Вверх