Loading...
Error

Хоббит: Нежданное путешествие / The Hobbit: An Unexpected Journey (Питер Джексон) [2012 г., фэнтези, приключения, BDRip] Dub + AVO + Original + Sub(Rus,Ukr,Eng) HQ Underverse

Статистика раздачи
Размер:  2,9 GB   |    Зарегистрирован:  3 года 8 месяцев   |    Скачан:  145 раз
Сидов:  1  |  0 KB/s  ]   Личеров:  0  |  0 KB/s  ]

* - сиды/пиры с внешних источников

   
 
Автор Сообщение

HQ Underverse 

04-Апр-2013 07:53

Хоббит: Нежданное путешествие / The Hobbit: An Unexpected Journey


Год выпуска: 2012
Жанр: фэнтези, приключения
Страна: США , Новая Зеландия
Режиссер: Питер Джексон
В ролях: Мартин Фриман, Иэн МакКеллен, Ричард Армитидж, Джеймс Несбитт, Кен Стотт, Грэм МакТавиш, Дин О’Горман, Эйдан Тернер, Джед Брофи, Марк Хэдлоу
Сюжет фильма:
Фильм повествует о путешествии Бильбо Бэггинса, который пускается в грандиозный поход, целью которого является отвоевание утраченного королевства гномов Эребор у зловещего дракона Смауга. Совершенно неожиданно с хоббитом налаживает контакт волшебник Гэндальф Серый. Так Бильбо находит себя, присоединяясь к компании тринадцати гномов, возглавляемых легендарным воином, Торином Дубощитом. Их путешествие проляжет через Дикий Край, через предательские земли, населенные гоблинами и орками, смертоносными варгами и гигантскими пауками, народом, меняющим шкуры, и волшебниками.

И хотя их цель находится на Востоке среди пустошей Одинокой Горы, сначала им придется выбраться из туннелей гоблинов, где Бильбо встретит существо, которое изменит его жизнь навсегда… Голлума.

Здесь, один на один с Голлумом, на берегу подземного озера, непритязательный Бильбо Бэггинс обнаружит не только скрытые в глубине души хитрость и отвагу, которые удивят даже его, но и завладеет «прелестным» колечком Голлума, которое обладает нежданными и полезными свойствами… Простое золотое кольцо, c которым связана судьба всего Средиземья, нитями, о которых Бильбо не мог даже вообразить.

  • Мировая премьера: 28 ноября 2012
  • Российская премьера: 19 декабря 2012, «Каро-Премьер» 3D

|
Качество видео: BDRip

Продолжительность: 02:49:38
Формат: avi
Видео: XviD, 720x304, 1990 kbps
Аудио #1: русский, дублированный [лицензия], AC3 5.1, 448 kbps
Аудио #2: английский, оригинал, AC3 5.1, 448 kbps (отдельным файлом: здесь)
Аудио #3: украинский, дублированный, AC3 5.1, 448 kbps (отдельным файлом: здесь)
Аудио #4: русский, одноголосый закадровый [Ю. Сербин], AC3 5.1, 448 kbps (отдельным файлом: здесь)
Субтитры #1: внешние, SRT, русский
Субтитры #2: внешние, SRT, английский
Субтитры #3: внешние, SRT, русский (VORONINE)
Субтитры #4: внешние, SRT, русский (FORCED)
Субтитры #5: внешние, SRT, украинский (FORCED)

Код:

General
Complete name                    : G:\Хоббит\Hobbit.2012.BDRip.XviD.AC3.Rus.D.Eng.O.HQ.Underverse.avi
Format                           : AVI
Format/Info                      : Audio Video Interleave
Format profile                   : OpenDML
File size                        : 2.90 GiB
Duration                         : 2h 49mn
Overall bit rate                 : 2 450 Kbps
Writing application              : VirtualDubMod 1.5.10.2 (build 2540/release)
Writing library                  : VirtualDubMod build 2540/release

Video
ID                               : 0
Format                           : MPEG-4 Visual
Format profile                   : Streaming Video@L1
Format settings, BVOP            : Yes
Format settings, QPel            : No
Format settings, GMC             : No warppoints
Format settings, Matrix          : Custom
Muxing mode                      : Packed bitstream
Codec ID                         : XVID
Codec ID/Hint                    : XviD
Duration                         : 2h 49mn
Bit rate                         : 1 991 Kbps
Width                            : 720 pixels
Height                           : 304 pixels
Display aspect ratio             : 2.35
Frame rate                       : 23.976 fps
Resolution                       : 24 bits
Colorimetry                      : 4:2:0
Scan type                        : Progressive
Bits/(Pixel*Frame)               : 0.379
Stream size                      : 2.36 GiB (81%)
Writing library                  : XviD 64

Audio
ID                               : 1
Format                           : AC-3
Format/Info                      : Audio Coding 3
Codec ID                         : 2000
Duration                         : 2h 49mn
Bit rate mode                    : Constant
Bit rate                         : 448 Kbps
Channel(s)                       : 6 channels
Channel positions                : Front: L C R, Surround: L R, LFE
Sampling rate                    : 48.0 KHz
Stream size                      : 544 MiB (18%)
Alignment                        : Split accross interleaves
Interleave, duration             : 42 ms (1.00 video frame)
Interleave, preload duration     : 500 ms

General
Complete name                    : G:\Хоббит\Hobbit.2012.BDRip.XviD.AC3.Rus.D.Eng.O.HQ.Underverse.avi.RUS.SERBIN.ac3
Format                           : AC-3
Format/Info                      : Audio Coding 3
File size                        : 544 MiB
Duration                         : 2h 49mn
Overall bit rate                 : 448 Kbps

Audio
Format                           : AC-3
Format/Info                      : Audio Coding 3
Duration                         : 2h 49mn
Bit rate mode                    : Constant
Bit rate                         : 448 Kbps
Channel(s)                       : 6 channels
Channel positions                : Front: L C R, Surround: L R, LFE
Sampling rate                    : 48.0 KHz
Stream size                      : 544 MiB (100%)

General
Complete name                    : G:\Хоббит\Hobbit.2012.BDRip.XviD.AC3.Rus.D.Eng.O.HQ.Underverse.avi.UKR.ac3
Format                           : AC-3
Format/Info                      : Audio Coding 3
File size                        : 544 MiB
Duration                         : 2h 49mn
Overall bit rate                 : 448 Kbps

Audio
Format                           : AC-3
Format/Info                      : Audio Coding 3
Duration                         : 2h 49mn
Bit rate mode                    : Constant
Bit rate                         : 448 Kbps
Channel(s)                       : 6 channels
Channel positions                : Front: L C R, Surround: L R, LFE
Sampling rate                    : 48.0 KHz
Stream size                      : 544 MiB (100%)

General
Complete name                    : G:\Хоббит\Hobbit.2012.BDRip.XviD.AC3.Rus.D.Eng.O.HQ.Underverse.avi.ENG.ac3
Format                           : AC-3
Format/Info                      : Audio Coding 3
File size                        : 544 MiB
Duration                         : 2h 49mn
Overall bit rate                 : 448 Kbps

Audio
Format                           : AC-3
Format/Info                      : Audio Coding 3
Duration                         : 2h 49mn
Bit rate mode                    : Constant
Bit rate                         : 448 Kbps
Channel(s)                       : 6 channels
Channel positions                : Front: L C R, Surround: L R, LFE
Sampling rate                    : 48.0 KHz
Stream size                      : 544 MiB (100%)

Релиз группы:

picpicpic
Для увеличения картинки щелкните мышкой по превью

Этот торрент недоступен для скачивания без регистрации, однако доступен по публичной magnet-ссылке (источники с публичных трекеров). Перед использованием ссылки прочтите, пожалуйста Пользовательское соглашение, а также как можно дольше оставайтесь на раздаче! Для того, чтобы скачать сам торрент-файл (который видит больше источников), а также для того, чтобы поблагодарить релизера, вам необходимо зарегистрироваться. Если регистрироваться лень - вы можете также попробовать скачать релиз по нашим партнерским ссылкам ниже.

[underverse.su].t25779.torrent
Трекер: Зарегистрирован   [ 04.04.2013 07:53 ]  

Статус: проверено (by HQ Underverse at 04.04.2013 07:54)
Поблагодарили: 11 человек
Тип торрента: публичный - доступные источники с открытых трекеров: 
Размер: 2,9 GB (занимает 2/3 DVDR, для записи нужно 1 болванка DVDR/RW)
 
 
Похожие темы
Форум Тема Автор Торрент Отв. Посл. сооб.
Зарубежное кино [DVDRip, Low-Res HDRip, и т.д.] Хоббит: Нежданное путешествие / The Hobbit: An Unexpected Journey (Питер Джексон / Peter Jackson) [2012 г., фэнтези, приключения, BDRip] Dub 90ytr90
1 | 0

0 | 1043

56

02.04.2013 19:31

Зарубежное кино [DVDRip, Low-Res HDRip, и т.д.] Хоббит: Нежданное путешествие / The Hobbit: An Unexpected Journey (Питер Джексон / Peter Jackson) [2012 г., фэнтези, приключения, HDRip] Dub Gaarochi
17 | 1

0 | 2693

205

03.04.2013 13:06

Зарубежное кино [DVDRip, Low-Res HDRip, и т.д.] Хоббит: Нежданное путешествие / The Hobbit: An Unexpected Journey (Питер Джексон / Peter Jackson) [2012 г., фэнтези, приключения, HDRip] [Extended Cut] Dub (iTunes) 90ytr90
6 | 0

2 | 2021

64

28.10.2013 09:53

Зарубежное кино [DVDRip, Low-Res HDRip, и т.д.] Хоббит: Нежданное путешествие / The Hobbit: An Unexpected Journey (Питер Джексон / Peter Jackson) [2012 г., фэнтези, приключения, BDRip-AVC] [Extended Cut] Dub + Original + Sub (rus) 90ytr90
1 | 0

0 | 920

39

13.11.2013 14:46

Зарубежное кино [DVD / HDDVD / BD / Remux] Хоббит: Нежданное путешествие / The Hobbit: An Unexpected Journey (Питер Джексон) [2012 г., фэнтези, приключения, 2ХDVD-9] Vetal78
6 | 0

0 | 712

5

20.04.2013 08:24

Зарубежное кино [HDDVDRip / BDRip / WEB-DL / HDTV 1080/720р] Хоббит: Нежданное путешествие / The Hobbit: An Unexpected Journey (Питер Джексон) [2012 г., фэнтези, приключения, BDRip 720p] Dub + Ukr + AVO (Ю.Сербин) + Eng 90ytr90
1 | 0

0 | 596

7

02.04.2013 19:19

Зарубежное кино [HDDVDRip / BDRip / WEB-DL / HDTV 1080/720р] Хоббит: Нежданное путешествие / The Hobbit: An Unexpected Journey (Питер Джексон) [2012 г., фэнтези, приключения, BDRip 1080p] Dub + Ukr + AVO (Ю.Сербин) + Eng 90ytr90
1 | 0

0 | 877

40

02.04.2013 19:42

Зарубежное кино [HDDVDRip / BDRip / WEB-DL / HDTV 1080/720р] Хоббит: Нежданное путешествие / The Hobbit: An Unexpected Journey (Питер Джексон) [2012 г., фэнтези, приключения, BDRip 720p] Dub + Ukr + Eng 90ytr90
2 | 0

0 | 824

40

02.04.2013 19:53

Зарубежное кино [HDDVDRip / BDRip / WEB-DL / HDTV 1080/720р] Хоббит: Нежданное путешествие / The Hobbit: An Unexpected Journey (Питер Джексон) [2012 г., фэнтези, приключения, BDRip 1080p] DUB, VO + SUB (Rus, Eng) Печаль'ka
2 | 0

0 | 1442

58

22.04.2013 06:47

Зарубежное кино [HDDVDRip / BDRip / WEB-DL / HDTV 1080/720р] Хоббит: Нежданное путешествие в 3Д / The Hobbit: An Unexpected Journey 3D (Питер Джексон) [2012 г., фэнтези, приключения,, BDRip 720p] Dub Анаглиф (Дюбуа) slaventi-69
0 | 0

0 | 3059

12

29.05.2013 08:26


Яндекс.Метрика powered by Sphinx


В Н И М А Н И Е
Сайт не распространяет и не хранит электронные версии произведений, а лишь бесплатно и без коммерческой выгоды (не требуя взамен платы,
SMS и т.д.) предоставляет доступ к создаваемому пользователями каталогу ссылок на торрент-файлы, которые содержат только списки хеш-сумм.
Убедительная просьба с жалобами обращаться напрямую к пользователю, разместившему торрент файл.

Вверх