Loading...
Error

Смеханические приключения Тарапуньки и Штепселя (2 серии из 2) (Юрий Тимошенко, Ефим Березин ) [1971 г., комедия, TVRip]

Статистика раздачи
Размер:  1,2 GB   |    Зарегистрирован:  3 года 8 месяцев   |    Скачан:  18 раз
Сидов:  1  |  0 KB/s  ]   Личеров:  0  |  0 KB/s  ]

* - сиды/пиры с внешних источников

   
 
Автор Сообщение

матроскин Пол:Муж

03-Апр-2013 15:45

Смеханические приключения Тарапуньки и Штепселя (2 серии из 2)


Год выпуска: 1971
Жанр: комедия
Страна: СССР
Режиссер: Юрий Тимошенко, Ефим Березин
В ролях: : Николай Яковченко, Савелий Крамаров, Юрий Тимошенко, Александр Масляков, Ефим Березин, Юлия Пашковская, Андрей Ищенко
Сюжет фильма:
Огромной популярностью и любовью зрителей, пользовались артисты оригинального жанра Юрий Тимошенко и Ефим Березин, Тарапунька и Штепсель. Смешные и остроумные выступления, которые всегда хорошо принимал благодарный зритель. Этот фильм о веселых приключениях популярных артистов эстрады Штепселя и Тарапуньки и изобретенной ими "смеханической машины"...
Не случайно фильмы жанра комедии, являются любимыми фильмами большинства поклонников кино. Ведь именно просмотр этих кинокартин позволяет нам отвлечься от насущных проблем и посмеяться над сюжетом фильма, как именно в этом случае. Конечно, кроме того, что у нас поднимается настроение, и нам весело, мы ещё умудряемся поправить своё здоровье, ведь не случайно же говорят, что смех это лучшее лекарство. А если ещё и актёры всеми любимые звёзды, так это просто замечательно


Качество видео: TVRip

Продолжительность: 01:03:37 + 01:03:18
Формат: avi
Видео: DivX 5, 704x576, 1150 kbps
Аудио: русский, оригинал, MP1 2.0, 192 kbps

Код:

General
Complete name                    : C:\Users\Security\Videos\Мамонов\Смеханические приключения Тарапуньки и Штепселя ( с 1 по 2 серии )\1.avi
Format                           : AVI
Format/Info                      : Audio Video Interleave
File size                        : 615 MiB
Duration                         : 1h 3mn
Overall bit rate                 : 1 352 Kbps
Writing application              : VirtualDubMod 1.5.10.2 (build 2540/release)
Writing library                  : VirtualDubMod build 2540/release

Video
ID                               : 0
Format                           : MPEG-4 Visual
Format settings, BVOP            : Yes
Format settings, QPel            : No
Format settings, GMC             : No warppoints
Format settings, Matrix          : Default (H.263)
Muxing mode                      : Packed bitstream
Codec ID                         : DX50
Codec ID/Hint                    : DivX 5
Duration                         : 1h 3mn
Bit rate                         : 1 151 Kbps
Width                            : 704 pixels
Height                           : 576 pixels
Display aspect ratio             : 1.222
Frame rate                       : 25.000 fps
Resolution                       : 24 bits
Colorimetry                      : 4:2:0
Scan type                        : Progressive
Bits/(Pixel*Frame)               : 0.114
Stream size                      : 524 MiB (85%)
Writing library                  : DivX 5.2.1 (DrDivX 106) (UTC 2004-09-08)

Audio
ID                               : 1
Format                           : MPEG Audio
Format version                   : Version 1
Format profile                   : Layer 2
Codec ID                         : 50
Codec ID/Hint                    : MP1
Duration                         : 1h 3mn
Bit rate mode                    : Constant
Bit rate                         : 192 Kbps
Channel(s)                       : 2 channels
Sampling rate                    : 48.0 KHz
Resolution                       : 16 bits
Video delay                      : 13ms
Stream size                      : 87.4 MiB (14%)
Alignment                        : Split accross interleaves
Interleave, duration             : 40 ms (1.00 video frame)
Interleave, preload duration     : 500 ms

picpicpicpicpic
Для увеличения картинки щелкните мышкой по превью

Этот торрент недоступен для скачивания без регистрации, однако доступен по публичной magnet-ссылке (источники с публичных трекеров). Перед использованием ссылки прочтите, пожалуйста Пользовательское соглашение, а также как можно дольше оставайтесь на раздаче! Для того, чтобы скачать сам торрент-файл (который видит больше источников), а также для того, чтобы поблагодарить релизера, вам необходимо зарегистрироваться. Если регистрироваться лень - вы можете также попробовать скачать релиз по нашим партнерским ссылкам ниже.

[underverse.su].t25764.torrent
Трекер: Зарегистрирован   [ 03.04.2013 15:45 ]  

Статус: проверено (by Jimmy at 03.04.2013 16:50)
Поблагодарили: 1 человек
Тип торрента: публичный - доступные источники с открытых трекеров: 
Размер: 1,2 GB (занимает 0,27 DVDR, для записи нужно 1 болванка DVDR/RW)
 
 

матроскин Пол:Муж

03-Апр-2013 15:48

.

olega_s Пол:Муж

05-Апр-2013 13:07

ок, буду раздавать очень долго, вещь стоящая

Яндекс.Метрика powered by Sphinx


В Н И М А Н И Е
Сайт не распространяет и не хранит электронные версии произведений, а лишь бесплатно и без коммерческой выгоды (не требуя взамен платы,
SMS и т.д.) предоставляет доступ к создаваемому пользователями каталогу ссылок на торрент-файлы, которые содержат только списки хеш-сумм.
Убедительная просьба с жалобами обращаться напрямую к пользователю, разместившему торрент файл.

Вверх