Loading...
Error

Жизненный путь Уго Чавеса [2013 г., документальный, TVRip]

Статистика раздачи
Размер:  3,92 GB   |    Зарегистрирован:  3 года 8 месяцев   |    Скачан:  6 раз

Полного источника не было: 2 года 9 месяцев

Сидов:  0  |  0 KB/s  ]   Личеров:  0  |  0 KB/s  ]

* - сиды/пиры с внешних источников

   
 
Автор Сообщение

матроскин Пол:Муж

03-Апр-2013 13:23

Жизненный путь Уго Чавеса


Год выпуска: 2013
Жанр: документальный
Страна: Россия
Выпущено: ТВ Россия 24
Сюжет фильма:
Уго Чавес -человек на все времена, он относился к своему народу с любовью и преданностью. Много трудностей ему пришлось пройти и он выдержал американский натиск и дал народу нормально жить. Вся страна вышла на улицы чтобы проститься с великим человеком, патриотом своей родины, люди провожавли Уго Чавеса и плакали. Правительсво Венесуэла заявило, что в смерти виноваты американца которые заразили его болезнью. Будет проведено расследование смерти Уго Чавеса. Уго Чавес будет похоронен в стеклянном куполе и забальзамирован.
Качество видео: TVRip

Продолжительность: 04:44:34
Формат: avi
Видео: DivX 4, 640x480, 674 kbps
Аудио: русский, оригинал, MP3 2.0, 256 kbps

Код:

General
Complete name                    : C:\Users\Security\Videos\Мамонов\Жизненный путь Уго Чавеса.avi
Format                           : AVI
Format/Info                      : Audio Video Interleave
Format profile                   : OpenDML
File size                        : 3.92 GiB
Duration                         : 12h 0mn
Overall bit rate                 : 780 Kbps
Writing application              : Lavf52.93.0

Video
ID                               : 0
Format                           : MPEG-4 Visual
Format profile                   : Simple@L1
Format settings, BVOP            : No
Format settings, QPel            : No
Format settings, GMC             : No warppoints
Format settings, Matrix          : Default (H.263)
Codec ID                         : DIVX
Codec ID/Info                    : Project Mayo
Codec ID/Hint                    : DivX 4
Duration                         : 12h 0mn
Bit rate                         : 674 Kbps
Width                            : 640 pixels
Height                           : 480 pixels
Display aspect ratio             : 4/3
Frame rate                       : 25.000 fps
Resolution                       : 24 bits
Colorimetry                      : 4:2:0
Scan type                        : Progressive
Bits/(Pixel*Frame)               : 0.088
Stream size                      : 3.39 GiB (87%)
Writing library                  : Lavc52.108.0

Audio
ID                               : 1
Format                           : MPEG Audio
Format version                   : Version 1
Format profile                   : Layer 3
Codec ID                         : 55
Codec ID/Hint                    : MP3
Duration                         : 4h 44mn
Bit rate mode                    : Constant
Bit rate                         : 256 Kbps
Channel(s)                       : 2 channels
Sampling rate                    : 44.1 KHz
Resolution                       : 16 bits
Stream size                      : 521 MiB (13%)
Alignment                        : Aligned on interleaves
Interleave, duration             : 26 ms (0.65 video frame)
Writing library                  : LAME3.98.4

picpicpicpicpicpic
Для увеличения картинки щелкните мышкой по превью

Этот торрент недоступен для скачивания без регистрации, однако доступен по публичной magnet-ссылке (источники с публичных трекеров). Перед использованием ссылки прочтите, пожалуйста Пользовательское соглашение, а также как можно дольше оставайтесь на раздаче! Для того, чтобы скачать сам торрент-файл (который видит больше источников), а также для того, чтобы поблагодарить релизера, вам необходимо зарегистрироваться. Если регистрироваться лень - вы можете также попробовать скачать релиз по нашим партнерским ссылкам ниже.

[underverse.su].t25751.torrent
Трекер: Зарегистрирован   [ 03.04.2013 13:23 ]  

Статус: проверено (by Jimmy at 03.04.2013 17:57)
Поблагодарили: пока никто не поблагодарил...
Тип торрента: публичный - доступные источники с открытых трекеров: 
Размер: 3,92 GB (занимает 0,9 DVDR, для записи нужно 1 болванка DVDR/RW)
 
 


Последний раз редактировалось: матроскин (03.04.2013 17:43), всего редактировалось 1 раз

матроскин Пол:Муж

03-Апр-2013 13:25

Качайте и смотрите документальные фильмы!


Яндекс.Метрика powered by Sphinx


В Н И М А Н И Е
Сайт не распространяет и не хранит электронные версии произведений, а лишь бесплатно и без коммерческой выгоды (не требуя взамен платы,
SMS и т.д.) предоставляет доступ к создаваемому пользователями каталогу ссылок на торрент-файлы, которые содержат только списки хеш-сумм.
Убедительная просьба с жалобами обращаться напрямую к пользователю, разместившему торрент файл.

Вверх