Loading...
Error

Защитникам Дома Советов октября 1993 года посвящается [1994 г., документальный, исторический (короткометражный), TVRip]

Статистика раздачи
Размер:  157 MB   |    Зарегистрирован:  3 года 8 месяцев   |    Скачан:  2 раза

Полного источника не было: 1 день

Сидов:  0  |  0 KB/s  ]   Личеров:  0  |  0 KB/s  ]

* - сиды/пиры с внешних источников

   
 
Автор Сообщение

матроскин Пол:Муж

03-Апр-2013 12:50

Защитникам Дома Советов октября 1993 года посвящается


Год выпуска: 1994
Жанр: документальный, исторический (короткометражный)
Страна: Россия
Выпущено: К.П."Трудовая Россия"
Сюжет фильма:
Этот фильм Посвящается памяти героев, защищавших Россию, русский народ и Конституцию в октябре 1993 года
Качество видео: TVRip

Продолжительность: 00:09:51
Формат: avi
Видео: DivX 4, 640x480, 1954 kbps
Аудио: русский, оригинал, MP3 2.0, 256 kbps

Код:

General
Complete name                    : C:\Users\Security\Videos\Мамонов\Защитникам посвящается.avi
Format                           : AVI
Format/Info                      : Audio Video Interleave
File size                        : 157 MiB
Duration                         : 9mn 51s
Overall bit rate                 : 2 222 Kbps
Writing application              : Lavf52.93.0

Video
ID                               : 0
Format                           : MPEG-4 Visual
Format profile                   : Simple@L1
Format settings, BVOP            : No
Format settings, QPel            : No
Format settings, GMC             : No warppoints
Format settings, Matrix          : Default (H.263)
Codec ID                         : DIVX
Codec ID/Info                    : Project Mayo
Codec ID/Hint                    : DivX 4
Duration                         : 9mn 50s
Bit rate                         : 1 954 Kbps
Width                            : 640 pixels
Height                           : 480 pixels
Display aspect ratio             : 4/3
Frame rate                       : 29.920 fps
Resolution                       : 24 bits
Colorimetry                      : 4:2:0
Scan type                        : Progressive
Bits/(Pixel*Frame)               : 0.213
Stream size                      : 138 MiB (88%)
Writing library                  : Lavc52.108.0

Audio
ID                               : 1
Format                           : MPEG Audio
Format version                   : Version 1
Format profile                   : Layer 3
Codec ID                         : 55
Codec ID/Hint                    : MP3
Duration                         : 9mn 51s
Bit rate mode                    : Constant
Bit rate                         : 256 Kbps
Channel(s)                       : 2 channels
Sampling rate                    : 44.1 KHz
Resolution                       : 16 bits
Stream size                      : 18.0 MiB (12%)
Alignment                        : Aligned on interleaves
Interleave, duration             : 26 ms (0.78 video frame)
Writing library                  : LAME3.98.4

picpicpicpicpicpic
Для увеличения картинки щелкните мышкой по превью

Этот торрент недоступен для скачивания без регистрации, однако доступен по публичной magnet-ссылке (источники с публичных трекеров). Перед использованием ссылки прочтите, пожалуйста Пользовательское соглашение, а также как можно дольше оставайтесь на раздаче! Для того, чтобы скачать сам торрент-файл (который видит больше источников), а также для того, чтобы поблагодарить релизера, вам необходимо зарегистрироваться. Если регистрироваться лень - вы можете также попробовать скачать релиз по нашим партнерским ссылкам ниже.

[underverse.su].t25747.torrent
Трекер: Зарегистрирован   [ 03.04.2013 12:50 ]  

Статус: проверено (by Чертёнок at 03.04.2013 12:56)
Поблагодарили: пока никто не поблагодарил...
Тип торрента: публичный - доступные источники с открытых трекеров: 
Размер: 157 MB (занимает 0,03 DVDR, для записи нужно 1 болванка DVDR/RW)
 
 

матроскин Пол:Муж

03-Апр-2013 12:52

Качайте и смотрите документальные фильмы!

.

Яндекс.Метрика powered by Sphinx


В Н И М А Н И Е
Сайт не распространяет и не хранит электронные версии произведений, а лишь бесплатно и без коммерческой выгоды (не требуя взамен платы,
SMS и т.д.) предоставляет доступ к создаваемому пользователями каталогу ссылок на торрент-файлы, которые содержат только списки хеш-сумм.
Убедительная просьба с жалобами обращаться напрямую к пользователю, разместившему торрент файл.

Вверх