Loading...
Error

Исповедь Генерала [1998 г., исторический, документальный, TVRip]

Статистика раздачи
Размер:  777 MB   |    Зарегистрирован:  3 года 8 месяцев   |    Скачан:  12 раз

Полного источника не было: 1 день 21 час

Сидов:  0  |  0 KB/s  ]   Личеров:  0  |  0 KB/s  ]

* - сиды/пиры с внешних источников

   
 
Автор Сообщение

матроскин Пол:Муж

03-Апр-2013 12:35

Исповедь Генерала


Год выпуска: 1998
Жанр: исторический, документальный
Страна: Россия
Режиссер: Алексей Борзенко
Сюжет фильма:
Генерал Рохлин делится своими воспоминаниями о самых первых и тяжёлых боях за город Грозный, в первой чеченской войне. Много лет умалчивались многие факты и казалось многие тайны так и остануться таковыми.. Но в 1998 году, за полгода до своей трагической смерти,( Генерал Лев Рохлин был убит на своей даче.....) Лев Я́ковлевич Рохлин даёт сенсационное интервью- "Без купюр"...
Качество видео: TVRip

Продолжительность: 00:46:58
Формат: avi
Видео: DivX 4, 640x480, 2042 kbps
Аудио: русский, оригинал, MP3 2.0, 256 kbps

Код:

General
Complete name                    : C:\Users\Security\Videos\Мамонов\Исповедь генерала (Лев Рохлин).avi
Format                           : AVI
Format/Info                      : Audio Video Interleave
File size                        : 777 MiB
Duration                         : 46mn 58s
Overall bit rate                 : 2 311 Kbps
Writing application              : Lavf52.93.0

Video
ID                               : 0
Format                           : MPEG-4 Visual
Format profile                   : Simple@L1
Format settings, BVOP            : No
Format settings, QPel            : No
Format settings, GMC             : No warppoints
Format settings, Matrix          : Default (H.263)
Codec ID                         : DIVX
Codec ID/Info                    : Project Mayo
Codec ID/Hint                    : DivX 4
Duration                         : 46mn 58s
Bit rate                         : 2 042 Kbps
Width                            : 640 pixels
Height                           : 480 pixels
Display aspect ratio             : 4/3
Frame rate                       : 29.920 fps
Resolution                       : 24 bits
Colorimetry                      : 4:2:0
Scan type                        : Progressive
Bits/(Pixel*Frame)               : 0.222
Stream size                      : 686 MiB (88%)
Writing library                  : Lavc52.108.0

Audio
ID                               : 1
Format                           : MPEG Audio
Format version                   : Version 1
Format profile                   : Layer 3
Codec ID                         : 55
Codec ID/Hint                    : MP3
Duration                         : 46mn 58s
Bit rate mode                    : Constant
Bit rate                         : 256 Kbps
Channel(s)                       : 2 channels
Sampling rate                    : 44.1 KHz
Resolution                       : 16 bits
Stream size                      : 86.0 MiB (11%)
Alignment                        : Aligned on interleaves
Interleave, duration             : 26 ms (0.78 video frame)
Writing library                  : LAME3.98.4

picpicpicpicpicpic
Для увеличения картинки щелкните мышкой по превью

Этот торрент недоступен для скачивания без регистрации, однако доступен по публичной magnet-ссылке (источники с публичных трекеров). Перед использованием ссылки прочтите, пожалуйста Пользовательское соглашение, а также как можно дольше оставайтесь на раздаче! Для того, чтобы скачать сам торрент-файл (который видит больше источников), а также для того, чтобы поблагодарить релизера, вам необходимо зарегистрироваться. Если регистрироваться лень - вы можете также попробовать скачать релиз по нашим партнерским ссылкам ниже.

[underverse.su].t25745.torrent
Трекер: Зарегистрирован   [ 03.04.2013 12:35 ]  

Статус: проверено (by Чертёнок at 03.04.2013 12:49)
Поблагодарили: 1 человек
Тип торрента: публичный - доступные источники с открытых трекеров: 
Размер: 777 MB (занимает 0,17 DVDR, для записи нужно 1 болванка DVDR/RW)
 
 

матроскин Пол:Муж

03-Апр-2013 12:37

Качайте и смотрите документальные фильмы!

.

Яндекс.Метрика powered by Sphinx


В Н И М А Н И Е
Сайт не распространяет и не хранит электронные версии произведений, а лишь бесплатно и без коммерческой выгоды (не требуя взамен платы,
SMS и т.д.) предоставляет доступ к создаваемому пользователями каталогу ссылок на торрент-файлы, которые содержат только списки хеш-сумм.
Убедительная просьба с жалобами обращаться напрямую к пользователю, разместившему торрент файл.

Вверх