Loading...
Error

Последний хозяин космоса [2002 г., документальный, исторический, TVRip]

Статистика раздачи
Размер:  459 MB   |    Зарегистрирован:  3 года 8 месяцев   |    Скачан:  6 раз
Сидов:  1  |  0 KB/s  ]   Личеров:  0  |  0 KB/s  ]

* - сиды/пиры с внешних источников

   
 
Автор Сообщение

матроскин Пол:Муж

03-Апр-2013 12:17

Последний хозяин космоса


Год выпуска: 2002
Жанр: документальный, исторический
Страна: Россия
Режиссер: Игорь Прокопенко, Вадим Артеменко
Сюжет фильма:
Фильм о главном конструкторе "Бурана" Глебе Евгеньевиче Лозино-Лозинском. О том, что в 1965 году был создан космический корабль многоразового использования. А также о том, что до знаменательного полета "Бурана" он был в космосе. В этом фильме будет рассказано.что космическому кораблю "Буран" не нужен ракетоноситель", потому что Буран" закрепляется на самолете "Мрия" и может стартовать с любого аэродрома в космос.
Качество видео: TVRip

Продолжительность: 00:27:42
Формат: avi
Видео: DivX 4, 768x576, 2046 kbps
Аудио: русский, оригинал, MP3 2.0, 256 kbps

Код:

General
Complete name                    : C:\Users\Security\Videos\Мамонов\Хозяин космоса 2002.avi
Format                           : AVI
Format/Info                      : Audio Video Interleave
File size                        : 459 MiB
Duration                         : 27mn 42s
Overall bit rate                 : 2 314 Kbps
Writing application              : Lavf52.93.0

Video
ID                               : 0
Format                           : MPEG-4 Visual
Format profile                   : Simple@L1
Format settings, BVOP            : No
Format settings, QPel            : No
Format settings, GMC             : No warppoints
Format settings, Matrix          : Default (H.263)
Codec ID                         : DIVX
Codec ID/Info                    : Project Mayo
Codec ID/Hint                    : DivX 4
Duration                         : 27mn 42s
Bit rate                         : 2 046 Kbps
Width                            : 768 pixels
Height                           : 576 pixels
Display aspect ratio             : 13.672
Frame rate                       : 25.000 fps
Standard                         : PAL
Resolution                       : 24 bits
Colorimetry                      : 4:2:0
Scan type                        : Progressive
Bits/(Pixel*Frame)               : 0.197
Stream size                      : 406 MiB (88%)
Writing library                  : Lavc52.108.0

Audio
ID                               : 1
Format                           : MPEG Audio
Format version                   : Version 1
Format profile                   : Layer 3
Codec ID                         : 55
Codec ID/Hint                    : MP3
Duration                         : 27mn 42s
Bit rate mode                    : Constant
Bit rate                         : 256 Kbps
Channel(s)                       : 2 channels
Sampling rate                    : 44.1 KHz
Resolution                       : 16 bits
Stream size                      : 50.7 MiB (11%)
Alignment                        : Aligned on interleaves
Interleave, duration             : 26 ms (0.65 video frame)
Writing library                  : LAME3.98.4

picpicpicpicpicpic
Для увеличения картинки щелкните мышкой по превью

Этот торрент недоступен для скачивания без регистрации, однако доступен по публичной magnet-ссылке (источники с публичных трекеров). Перед использованием ссылки прочтите, пожалуйста Пользовательское соглашение, а также как можно дольше оставайтесь на раздаче! Для того, чтобы скачать сам торрент-файл (который видит больше источников), а также для того, чтобы поблагодарить релизера, вам необходимо зарегистрироваться. Если регистрироваться лень - вы можете также попробовать скачать релиз по нашим партнерским ссылкам ниже.

[underverse.su].t25744.torrent
Трекер: Зарегистрирован   [ 03.04.2013 12:17 ]  

Статус: проверено (by Чертёнок at 03.04.2013 12:21)
Поблагодарили: пока никто не поблагодарил...
Тип торрента: публичный - доступные источники с открытых трекеров: 
Размер: 459 MB (занимает 0,1 DVDR, для записи нужно 1 болванка DVDR/RW)
 
 
Похожие темы
Форум Тема Автор Торрент Отв. Посл. сооб.
Зарубежное кино [DVDRip, Low-Res HDRip, и т.д.] Последний король Шотландии / The Last King of Scotland (Кевин МакДональд) [2006 г., драма, исторический, DVDRip] km170682tvv
0 | 0

1 | 1421

14

22.07.2009 08:58

Зарубежное кино [DVDRip, Low-Res HDRip, и т.д.] Последний император / The Last Emperor (Бернардо Бертолуччи) [1987 г., биография, исторический, драма, DVDRip] km170682tvv
0 | 0

1 | 1455

3

30.07.2009 17:47

Зарубежное кино [DVDRip, Low-Res HDRip, и т.д.] Последний самурай / The Last Samurai (Эдвард Цвик) [2003 г., боевик, драма, приключения, военный, BDRip] Dub + Sub (Rus) NMZ
22 | 0

6 | 2721

15

18.11.2013 14:39

Зарубежное кино [DVDRip, Low-Res HDRip, и т.д.] Последний дракон: В поисках магической жемчужины / The Dragon Pearl (Марио Андриччион) [2011 г., детектив, приключения, семейный, DVDRip] LAMA
0 | 0

0 | 889

5

19.07.2011 09:25

Зарубежное кино [DVDRip, Low-Res HDRip, и т.д.] Последний охотник на ведьм / The Last Witch Hunter (Брек Эйснер / Breck Eisner) [2015 г., фэнтези, боевик, приключения, BDRip] Dub + Original (Eng) 90ytr90
138 | 4

0 | 262

12

17.11.2016 11:18

Зарубежное кино [DVDRip, Low-Res HDRip, и т.д.] Последний в обойме / One in the Gun (Рольф Канефски) [2010 г., триллер, DVDRip] DVO DarkAngel
4 | 0

1 | 783

29

12.01.2016 19:52

Зарубежное кино [DVDRip, Low-Res HDRip, и т.д.] Последний час Земли / Earth's Final Hours (Дэвид Хоган) [2011 г., фантастика, HDRip] MVO 90ytr90
3 | 0

1 | 1305

41

12.12.2012 18:01

T Зарубежное кино [DVDRip, Low-Res HDRip, и т.д.] Последний звездолёт / The Last Starship (Свен Кнюппель) [2016 г., фантастика, DVDRip] MVO (Синема УС) 90ytr90
516 | 30

0 | 506

22

13.11.2016 16:25

Зарубежное кино [DVDRip, Low-Res HDRip, и т.д.] Последний дом слева / The Last House on the Left [Unrated] (Дэннис Илиадис) [2009 г., ужасы, триллер, драма, BDRip] Dub + Original garry
0 | 1

0 | 622

13

20.12.2012 22:28

Зарубежное кино [DVDRip, Low-Res HDRip, и т.д.] Последний магнат / Da Shang Hai (Цзин Вон) [2012 г., драма, мелодрама, приключения, военный, HDRip] DVO 90ytr90
3 | 0

0 | 1125

25

16.03.2013 18:20



Последний раз редактировалось: матроскин (03.04.2013 12:23), всего редактировалось 2 раз(а)

матроскин Пол:Муж

03-Апр-2013 12:20

КАЧАЙТЕ И СМОТРИТЕ ДОКУМЕНТАЛЬНЫЙ ФИЛЬМ О СОВЕТСКОМ КОСМИЧЕСКОМ КОРАБЛЕ "БУРАН"
.

МаскПэйн Пол:Муж

04-Апр-2013 08:38

Наши ракето-строители были СУПЕР! Жаль сейчас таких людей мало...

матроскин Пол:Муж

05-Апр-2013 08:54

МаскПэйн писал(а):

Наши ракето-строители были СУПЕР! Жаль сейчас таких людей мало...
СЕЙЧАС УЧЕНЫХ НЕ ОСТАЛОСЬ, ГОРБАЧЕВСКО-ЕЛЬЦИНСКАЯ-ПУТИНСКАЯ КОМАНДА УНИЧТОЖИЛА СТРАНУ И НАУКУ!!!


Яндекс.Метрика powered by Sphinx


В Н И М А Н И Е
Сайт не распространяет и не хранит электронные версии произведений, а лишь бесплатно и без коммерческой выгоды (не требуя взамен платы,
SMS и т.д.) предоставляет доступ к создаваемому пользователями каталогу ссылок на торрент-файлы, которые содержат только списки хеш-сумм.
Убедительная просьба с жалобами обращаться напрямую к пользователю, разместившему торрент файл.

Вверх