Loading...
Error

Вопреки всему (Тимофей Спивак ) [1993 г., криминальный, DVDRip]

Статистика раздачи
Размер:  1,07 GB   |    Зарегистрирован:  3 года 7 месяцев   |    Скачан:  2 раза

Полного источника не было: 6 дней

Сидов:  0  |  0 KB/s  ]   Личеров:  0  |  0 KB/s  ]

* - сиды/пиры с внешних источников

   
 
Автор Сообщение

матроскин Пол:Муж

03-Апр-2013 11:53

Вопреки всему


Год выпуска: 1993
Жанр: криминальный
Страна: Россия
Режиссер: Тимофей Спивак
В ролях: Александр Михайлов, Юлия Силаева, Тимофей Спивак, Игорь Янковский, Александр Белявский, Мария Веракса, Нгуен Чун Киен, Дао Ман Хунг, Алексей Ванин, Гоша Куценко, В. Борисов, Шавкат Газиев, Анатолий Егоров, Александр Литовкин, Нодар Мгалоблишвили, Вячеслав Мищенко, Леван Мсхиладзе.
Сюжет фильма:
Россия начала 90-х годов. Свобода слова и свобода дела. Множество криминальных группировок пытаются отхватить свой кусок пирога гибнущей империи. Жажда власти и денег приводит ко все новым разборкам и убийствам. Очередная жертва обнаружена оперативниками в собственной квартире. Алина - единственная свидетельница, найденная спящей на месте преступления. Дело поручено опытному следователю, который даже не подозревает, какой преступный улей ему придется разворошить. Девушка, очарованная постоянно хмурым, но очень обаятельным детективом, решается помочь. Но излишняя разговорчивость грозит свидетельнице смертью. По ее следам уже идет профессиональный киллер...


Качество видео: DVDRip

Продолжительность: 02:51:43
Формат: avi
Видео: DivX 4, 704x528, 785 kbps
Аудио: русский, оригинал, MP3 2.0, 256 kbps

Код:

General
Complete name                    : C:\Users\Security\Videos\Мамонов\Вопреки_всему.avi
Format                           : AVI
Format/Info                      : Audio Video Interleave
Format profile                   : OpenDML
File size                        : 1.07 GiB
Duration                         : 2h 51mn
Overall bit rate                 : 893 Kbps
Writing application              : Lavf52.93.0

Video
ID                               : 0
Format                           : MPEG-4 Visual
Format profile                   : Simple@L1
Format settings, BVOP            : No
Format settings, QPel            : No
Format settings, GMC             : No warppoints
Format settings, Matrix          : Default (H.263)
Codec ID                         : DIVX
Codec ID/Info                    : Project Mayo
Codec ID/Hint                    : DivX 4
Duration                         : 2h 51mn
Bit rate                         : 786 Kbps
Width                            : 704 pixels
Height                           : 528 pixels
Display aspect ratio             : 4/3
Frame rate                       : 25.000 fps
Resolution                       : 24 bits
Colorimetry                      : 4:2:0
Scan type                        : Progressive
Bits/(Pixel*Frame)               : 0.085
Stream size                      : 965 MiB (88%)
Writing library                  : Lavc52.108.0

Audio
ID                               : 1
Format                           : MPEG Audio
Format version                   : Version 1
Format profile                   : Layer 3
Codec ID                         : 55
Codec ID/Hint                    : MP3
Duration                         : 1h 7mn
Bit rate mode                    : Constant
Bit rate                         : 256 Kbps
Channel(s)                       : 2 channels
Sampling rate                    : 44.1 KHz
Resolution                       : 16 bits
Stream size                      : 124 MiB (11%)
Alignment                        : Aligned on interleaves
Interleave, duration             : 26 ms (0.65 video frame)
Interleave, preload duration     : 52 ms

picpicpicpicpicpic
Для увеличения картинки щелкните мышкой по превью

Этот торрент недоступен для скачивания без регистрации, однако доступен по публичной magnet-ссылке (источники с публичных трекеров). Перед использованием ссылки прочтите, пожалуйста Пользовательское соглашение, а также как можно дольше оставайтесь на раздаче! Для того, чтобы скачать сам торрент-файл (который видит больше источников), а также для того, чтобы поблагодарить релизера, вам необходимо зарегистрироваться. Если регистрироваться лень - вы можете также попробовать скачать релиз по нашим партнерским ссылкам ниже.

[underverse.su].t25743.torrent
Трекер: Зарегистрирован   [ 03.04.2013 11:53 ]  

Статус: проверено (by Чертёнок at 03.04.2013 12:02)
Поблагодарили: пока никто не поблагодарил...
Тип торрента: публичный - доступные источники с открытых трекеров: 
Размер: 1,07 GB (занимает 0,24 DVDR, для записи нужно 1 болванка DVDR/RW)
 
 

матроскин Пол:Муж

03-Апр-2013 11:55


Яндекс.Метрика powered by Sphinx


В Н И М А Н И Е
Сайт не распространяет и не хранит электронные версии произведений, а лишь бесплатно и без коммерческой выгоды (не требуя взамен платы,
SMS и т.д.) предоставляет доступ к создаваемому пользователями каталогу ссылок на торрент-файлы, которые содержат только списки хеш-сумм.
Убедительная просьба с жалобами обращаться напрямую к пользователю, разместившему торрент файл.

Вверх