Loading...
Error

Ельцин и водка [2003 г., документальный, исторический, TVRip]

Статистика раздачи
Размер:  581 MB   |    Зарегистрирован:  3 года 8 месяцев   |    Скачан:  14 раз
Сидов:  2  |  0 KB/s  ]   Личеров:  0  |  0 KB/s  ]

* - сиды/пиры с внешних источников

   
 
Автор Сообщение

матроскин Пол:Муж

03-Апр-2013 11:17

Ельцин и водка


Год выпуска: 2003
Жанр: документальный, исторический
Страна: Великобритания
Выпущено: Discovery ТВ
Сюжет фильма:
В фильме рассказывается, какое влияние на некоторые важные политические решения оказала клиническая депрессия и пресловутая любовь Ельцина к водке. Конечно в этом фильме рассказано об Ельцине как о политике мягко говоря не правда, Ельцин политиком был никаким, как человек мстительный и очень трусоватый, который предал свою партию КПСС, а после на съезде начал извиняться. Россия при Ельцине встала на путь бандитизма и коррупции.
Качество видео: TVRip

Продолжительность: 00:47:26
Формат: avi
Видео: DivX 4, 720x576, 1443 kbps
Аудио: Русский, Профессиональный (одноголосый), MP3 2.0, 256 kbps

Код:

General
Complete name                    : C:\Users\Security\Videos\Мамонов\Ельцин и водка 1-5.avi
Format                           : AVI
Format/Info                      : Audio Video Interleave
File size                        : 581 MiB
Duration                         : 47mn 26s
Overall bit rate                 : 1 711 Kbps
Writing application              : Lavf52.93.0

Video
ID                               : 0
Format                           : MPEG-4 Visual
Format profile                   : Simple@L1
Format settings, BVOP            : No
Format settings, QPel            : No
Format settings, GMC             : No warppoints
Format settings, Matrix          : Default (H.263)
Codec ID                         : DIVX
Codec ID/Info                    : Project Mayo
Codec ID/Hint                    : DivX 4
Duration                         : 47mn 25s
Bit rate                         : 1 443 Kbps
Width                            : 720 pixels
Height                           : 576 pixels
Display aspect ratio             : 5/4
Frame rate                       : 25.000 fps
Standard                         : PAL
Resolution                       : 24 bits
Colorimetry                      : 4:2:0
Scan type                        : Progressive
Bits/(Pixel*Frame)               : 0.139
Stream size                      : 490 MiB (84%)
Writing library                  : Lavc52.108.0

Audio
ID                               : 1
Format                           : MPEG Audio
Format version                   : Version 1
Format profile                   : Layer 3
Codec ID                         : 55
Codec ID/Hint                    : MP3
Duration                         : 47mn 26s
Bit rate mode                    : Constant
Bit rate                         : 256 Kbps
Channel(s)                       : 2 channels
Sampling rate                    : 44.1 KHz
Resolution                       : 16 bits
Stream size                      : 86.9 MiB (15%)
Alignment                        : Aligned on interleaves
Interleave, duration             : 26 ms (0.65 video frame)
Writing library                  : LAME3.98.4

picpicpicpicpicpic
Для увеличения картинки щелкните мышкой по превью

Этот торрент недоступен для скачивания без регистрации, однако доступен по публичной magnet-ссылке (источники с публичных трекеров). Перед использованием ссылки прочтите, пожалуйста Пользовательское соглашение, а также как можно дольше оставайтесь на раздаче! Для того, чтобы скачать сам торрент-файл (который видит больше источников), а также для того, чтобы поблагодарить релизера, вам необходимо зарегистрироваться. Если регистрироваться лень - вы можете также попробовать скачать релиз по нашим партнерским ссылкам ниже.

[underverse.su].t25739.torrent
Трекер: Зарегистрирован   [ 03.04.2013 11:17 ]  

Статус: проверено (by Чертёнок at 03.04.2013 11:44)
Поблагодарили: 2 человека
Тип торрента: публичный - доступные источники с открытых трекеров: 
Размер: 581 MB (занимает 0,13 DVDR, для записи нужно 1 болванка DVDR/RW)
 
 

матроскин Пол:Муж

03-Апр-2013 11:25

Качайте и смотрите документальные фильмы!

.

Яндекс.Метрика powered by Sphinx


В Н И М А Н И Е
Сайт не распространяет и не хранит электронные версии произведений, а лишь бесплатно и без коммерческой выгоды (не требуя взамен платы,
SMS и т.д.) предоставляет доступ к создаваемому пользователями каталогу ссылок на торрент-файлы, которые содержат только списки хеш-сумм.
Убедительная просьба с жалобами обращаться напрямую к пользователю, разместившему торрент файл.

Вверх