Loading...
Error

Автопортрет ( Юрий Дроздов ) [1987 г., документальный, VHSRip ]

Статистика раздачи
Размер:  887 MB   |    Зарегистрирован:  3 года 8 месяцев   |    Скачан:  0 раз

Полного источника не было: 2 года 7 месяцев

Сидов:  0  |  0 KB/s  ]   Личеров:  0  |  0 KB/s  ]

* - сиды/пиры с внешних источников

   
 
Автор Сообщение

матроскин Пол:Муж

03-Апр-2013 10:51

Автопортрет


Год выпуска: 1987
Жанр: документальный
Страна: СССР
Режиссер: Юрий Дроздов
Сюжет фильма:
Высоцкий В.С. считал себя в первую очередь актером. Его театр на Таганке, его "Гамлет", его "Десять дней, которые потрясли мир"... Песни - в начале только для себя, для узкого круга друзей... В фильме "Автопортрет" мы не услышим комментариев и воспоминаний.Он рассказывает о себе сам, о том, что для него главное в творчестве, в театре, в кино и в жизни. В кадре - только Высоцкий - Актер, Поэт, Исполнитель...
Качество видео: VHSRip

Продолжительность: 00:53:31
Формат: avi
Видео: DivX 4, 720x576, 2048 kbps
Аудио: русский, оригинал, MP3 2.0, 256 kbps

Код:

General
Complete name                    : C:\Users\Security\Videos\Мамонов\Высоцкий.Автопортет.avi
Format                           : AVI
Format/Info                      : Audio Video Interleave
File size                        : 887 MiB
Duration                         : 53mn 31s
Overall bit rate                 : 2 316 Kbps
Writing application              : Lavf52.93.0

Video
ID                               : 0
Format                           : MPEG-4 Visual
Format profile                   : Simple@L1
Format settings, BVOP            : No
Format settings, QPel            : No
Format settings, GMC             : No warppoints
Format settings, Matrix          : Default (H.263)
Codec ID                         : DIVX
Codec ID/Info                    : Project Mayo
Codec ID/Hint                    : DivX 4
Duration                         : 53mn 31s
Bit rate                         : 2 048 Kbps
Width                            : 720 pixels
Height                           : 576 pixels
Display aspect ratio             : 4/3
Frame rate                       : 25.000 fps
Standard                         : PAL
Resolution                       : 24 bits
Colorimetry                      : 4:2:0
Scan type                        : Progressive
Bits/(Pixel*Frame)               : 0.198
Stream size                      : 784 MiB (88%)
Writing library                  : Lavc52.108.0

Audio
ID                               : 1
Format                           : MPEG Audio
Format version                   : Version 1
Format profile                   : Layer 3
Codec ID                         : 55
Codec ID/Hint                    : MP3
Duration                         : 53mn 31s
Bit rate mode                    : Constant
Bit rate                         : 256 Kbps
Channel(s)                       : 2 channels
Sampling rate                    : 44.1 KHz
Resolution                       : 16 bits
Stream size                      : 98.0 MiB (11%)
Alignment                        : Aligned on interleaves
Interleave, duration             : 26 ms (0.65 video frame)
Writing library                  : LAME3.98.4

picpicpicpicpicpic
Для увеличения картинки щелкните мышкой по превью

Этот торрент недоступен для скачивания без регистрации, однако доступен по публичной magnet-ссылке (источники с публичных трекеров). Перед использованием ссылки прочтите, пожалуйста Пользовательское соглашение, а также как можно дольше оставайтесь на раздаче! Для того, чтобы скачать сам торрент-файл (который видит больше источников), а также для того, чтобы поблагодарить релизера, вам необходимо зарегистрироваться. Если регистрироваться лень - вы можете также попробовать скачать релиз по нашим партнерским ссылкам ниже.

[underverse.su].t25738.torrent
Трекер: Зарегистрирован   [ 03.04.2013 10:51 ]  

Статус: проверено (by Чертёнок at 03.04.2013 11:02)
Поблагодарили: пока никто не поблагодарил...
Тип торрента: публичный - доступные источники с открытых трекеров: 
Размер: 887 MB (занимает 0,2 DVDR, для записи нужно 1 болванка DVDR/RW)
 
 


Последний раз редактировалось: матроскин (03.04.2013 11:00), всего редактировалось 1 раз

матроскин Пол:Муж

03-Апр-2013 10:55

Качайте и смотрите документальные фильмы!


Яндекс.Метрика powered by Sphinx


В Н И М А Н И Е
Сайт не распространяет и не хранит электронные версии произведений, а лишь бесплатно и без коммерческой выгоды (не требуя взамен платы,
SMS и т.д.) предоставляет доступ к создаваемому пользователями каталогу ссылок на торрент-файлы, которые содержат только списки хеш-сумм.
Убедительная просьба с жалобами обращаться напрямую к пользователю, разместившему торрент файл.

Вверх