Loading...
Error

Товарищ Арсений (Иван Лукинский ) [1964 г., историко-революционный , VHSRip]

Статистика раздачи
Размер:  1,37 GB   |    Зарегистрирован:  3 года 8 месяцев   |    Скачан:  4 раза

Полного источника не было: 10 часов

Сидов:  0  |  0 KB/s  ]   Личеров:  0  |  0 KB/s  ]

* - сиды/пиры с внешних источников

   
 
Автор Сообщение

матроскин Пол:Муж

03-Апр-2013 09:15

Товарищ Арсений


Год выпуска: 1964
Жанр: историко-революционный
Страна: СССР
Режиссер: Иван Лукинский
В ролях: Рома Хомятов, Евгений Буренков, Владимир Костин, Владимир Соловьев, Надежда Корункова, Олеся Иванова, Светлана Жгун, Наталья Климова, Владимир Муравьев, Виктор Чекмарев, Леонид Броневой, Сергей Блинников
Сюжет фильма:
Историко-революционный биографический фильм по одноименному роману А Васильева.
О первых годах (1905-1907) революционной деятельности большевика М.В.Фрунзе (1885-1925) в городе Иваново-Вознесенске.
Качество видео: VHSrip

Продолжительность: 01:25:14
Формат: avi
Видео: XviD, 672x272, 2185 kbps
Аудио: русский, оригинал, MP3 2.0, 100 kbps

Код:

General
Complete name                    : C:\Users\Security\Videos\Мамонов\Tovarish.Arseny.VHSrip.avi
Format                           : AVI
Format/Info                      : Audio Video Interleave
File size                        : 1.37 GiB
Duration                         : 1h 25mn
Overall bit rate                 : 2 299 Kbps
Writing application              : VirtualDubMod 1.5.4.1 (build 2178/release)
Writing library                  : VirtualDubMod build 2178/release

Video
ID                               : 0
Format                           : MPEG-4 Visual
Format profile                   : Streaming Video@L1
Format settings, BVOP            : Yes
Format settings, QPel            : No
Format settings, GMC             : No warppoints
Format settings, Matrix          : Custom
Codec ID                         : XVID
Codec ID/Hint                    : XviD
Duration                         : 1h 25mn
Bit rate                         : 2 186 Kbps
Width                            : 672 pixels
Height                           : 272 pixels
Display aspect ratio             : 2.471
Frame rate                       : 25.000 fps
Resolution                       : 24 bits
Colorimetry                      : 4:2:0
Scan type                        : Progressive
Bits/(Pixel*Frame)               : 0.478
Stream size                      : 1.30 GiB (95%)
Writing library                  : XviD 1.3.0.dev55

Audio
ID                               : 1
Format                           : MPEG Audio
Format version                   : Version 1
Format profile                   : Layer 3
Codec ID                         : 55
Codec ID/Hint                    : MP3
Duration                         : 1h 25mn
Bit rate mode                    : Variable
Bit rate                         : 101 Kbps
Nominal bit rate                 : 128 Kbps
Channel(s)                       : 2 channels
Sampling rate                    : 48.0 KHz
Resolution                       : 16 bits
Stream size                      : 61.5 MiB (4%)
Alignment                        : Aligned on interleaves
Interleave, duration             : 24 ms (0.60 video frame)
Interleave, preload duration     : 491 ms
Writing library                  : LAME3.98r
Encoding settings                : -m j -V 4 -q 2 -lowpass 17 --abr 128

picpicpicpicpic
Для увеличения картинки щелкните мышкой по превью

Этот торрент недоступен для скачивания без регистрации, однако доступен по публичной magnet-ссылке (источники с публичных трекеров). Перед использованием ссылки прочтите, пожалуйста Пользовательское соглашение, а также как можно дольше оставайтесь на раздаче! Для того, чтобы скачать сам торрент-файл (который видит больше источников), а также для того, чтобы поблагодарить релизера, вам необходимо зарегистрироваться. Если регистрироваться лень - вы можете также попробовать скачать релиз по нашим партнерским ссылкам ниже.

[underverse.su].t25734.torrent
Трекер: Зарегистрирован   [ 03.04.2013 09:15 ]  

Статус: проверено (by Чертёнок at 03.04.2013 10:34)
Поблагодарили: пока никто не поблагодарил...
Тип торрента: публичный - доступные источники с открытых трекеров: 
Размер: 1,37 GB (занимает 0,31 DVDR, для записи нужно 1 болванка DVDR/RW)
 
 


Последний раз редактировалось: матроскин (03.04.2013 10:31), всего редактировалось 1 раз

матроскин Пол:Муж

03-Апр-2013 09:17

Всем приятного просмотра!

.

Чертёнок Пол:Муж

03-Апр-2013 10:27

Так какое качество TVRip или VHSrip :twisted:

Яндекс.Метрика powered by Sphinx


В Н И М А Н И Е
Сайт не распространяет и не хранит электронные версии произведений, а лишь бесплатно и без коммерческой выгоды (не требуя взамен платы,
SMS и т.д.) предоставляет доступ к создаваемому пользователями каталогу ссылок на торрент-файлы, которые содержат только списки хеш-сумм.
Убедительная просьба с жалобами обращаться напрямую к пользователю, разместившему торрент файл.

Вверх