Loading...
Error

Где Ваш сын? (Игорь Вознесенский ) [1986 г., драма, TVRip]

Статистика раздачи
Размер:  979 MB   |    Зарегистрирован:  3 года 8 месяцев   |    Скачан:  6 раз

Полного источника не было: 8 часов

Сидов:  0  |  0 KB/s  ]   Личеров:  0  |  0 KB/s  ]

* - сиды/пиры с внешних источников

   
 
Автор Сообщение

матроскин Пол:Муж

03-Апр-2013 08:57

Где Ваш сын?


Год выпуска: 1986
Жанр: драма
Страна: СССР
Режиссер: Игорь Вознесенский
В ролях: : Андрей Ростоцкий, Володя Сычев, Максим Максимов, Женя Петров, Тамара Дегтярева, Елена Валаева, Александр Потапов, Юрий Чернов, Анатолий Васильев, Елена Борзова, Владимир Никитин, Павел Ремезов
Сюжет фильма:
Герой фильма - работник милиции, - расследуя дело о квартирной краже, сталкивается с трагедией детей, которым дали жизнь, но отняли дом, материнскую ласку, заботу... Взяв шефство над детским домом, он и его друзья стараются вернуть детям надежду и радость.


Качество видео: TVRip

Продолжительность: 01:17:28
Формат: avi
Видео: XviD, 688x496, 1500 kbps
Аудио: русский, оригинал, MP3 2.0, 256 kbps

Код:

General
Complete name                    : C:\Users\Security\Videos\Мамонов\Где ваш сын.avi
Format                           : AVI
Format/Info                      : Audio Video Interleave
File size                        : 979 MiB
Duration                         : 1h 17mn
Overall bit rate                 : 1 766 Kbps
Writing library                  : VirtualDub-MPEG2 build 23685/release

Video
ID                               : 0
Format                           : MPEG-4 Visual
Format profile                   : Simple@L3
Format settings, BVOP            : No
Format settings, QPel            : No
Format settings, GMC             : No warppoints
Format settings, Matrix          : Default (H.263)
Codec ID                         : XVID
Codec ID/Hint                    : XviD
Duration                         : 1h 17mn
Bit rate                         : 1 500 Kbps
Width                            : 688 pixels
Height                           : 496 pixels
Display aspect ratio             : 1.387
Frame rate                       : 25.000 fps
Resolution                       : 24 bits
Colorimetry                      : 4:2:0
Scan type                        : Progressive
Bits/(Pixel*Frame)               : 0.176
Stream size                      : 831 MiB (85%)
Writing library                  : XviD 1.2.1 (UTC 2008-12-04)

Audio
ID                               : 1
Format                           : MPEG Audio
Format version                   : Version 1
Format profile                   : Layer 3
Codec ID                         : 55
Codec ID/Hint                    : MP3
Duration                         : 1h 17mn
Bit rate mode                    : Constant
Bit rate                         : 256 Kbps
Channel(s)                       : 2 channels
Sampling rate                    : 48.0 KHz
Resolution                       : 16 bits
Stream size                      : 142 MiB (14%)
Alignment                        : Split accross interleaves
Interleave, duration             : 40 ms (1.00 video frame)
Interleave, preload duration     : 500 ms

picpicpicpicpic
Для увеличения картинки щелкните мышкой по превью

Этот торрент недоступен для скачивания без регистрации, однако доступен по публичной magnet-ссылке (источники с публичных трекеров). Перед использованием ссылки прочтите, пожалуйста Пользовательское соглашение, а также как можно дольше оставайтесь на раздаче! Для того, чтобы скачать сам торрент-файл (который видит больше источников), а также для того, чтобы поблагодарить релизера, вам необходимо зарегистрироваться. Если регистрироваться лень - вы можете также попробовать скачать релиз по нашим партнерским ссылкам ниже.

[underverse.su].t25733.torrent
Трекер: Зарегистрирован   [ 03.04.2013 08:57 ]  

Статус: проверено (by Чертёнок at 03.04.2013 10:28)
Поблагодарили: 3 человека
Тип торрента: публичный - доступные источники с открытых трекеров: 
Размер: 979 MB (занимает 0,22 DVDR, для записи нужно 1 болванка DVDR/RW)
 
 

матроскин Пол:Муж

03-Апр-2013 09:00

Всем приятного просмотра!

.

alina180 Пол:Муж

06-Апр-2013 06:29

матроскин Уважаемый автор станьте пожалуйста на раздачу х.ф. " Где Ваш сын?"
Заранее большое спасибо.

Яндекс.Метрика powered by Sphinx


В Н И М А Н И Е
Сайт не распространяет и не хранит электронные версии произведений, а лишь бесплатно и без коммерческой выгоды (не требуя взамен платы,
SMS и т.д.) предоставляет доступ к создаваемому пользователями каталогу ссылок на торрент-файлы, которые содержат только списки хеш-сумм.
Убедительная просьба с жалобами обращаться напрямую к пользователю, разместившему торрент файл.

Вверх