Loading...
Error

Час негодяев [1993 г., документальный, исторический TVRip]

Статистика раздачи
Размер:  144 MB   |    Зарегистрирован:  3 года 8 месяцев   |    Скачан:  8 раз

Полного источника не было: 8 часов

Сидов:  0  |  0 KB/s  ]   Личеров:  0  |  0 KB/s  ]

* - сиды/пиры с внешних источников

   
 
Автор Сообщение

матроскин Пол:Муж

03-Апр-2013 06:10

Час негодяев


Год выпуска: 1993
Жанр: документальный, исторический
Страна: Россия
Режиссер: Станислав Говорухин
Сюжет фильма:
В этом фильме будет рассказано О "ПУСТЯЧКЕ".-
21 сентября 1993 года в России произошел ГОСУДАРСТВЕННЫЙ ПЕРЕВОРОТ,была попрана Конституция и низвержен Парламент,москвичи вышли на улицы. В ночь с 3 на 4 октября Гайдар потребовал от Центрабанка экстраординарную сумму наличными 11 миллиардов рублей, как писала наша пресса. Центробанк отказал.В эту же ночь с фабрики Госзнака были похищены деньги примерно в такой же сумме. В такую же сумму обошлось подавление восстания в октябре 1993г. По 5 миллионов рублей получил каждый офицер из сводных экипажей танков стрелявших по Белому Дому.Два раза по 200 тысяч получил каждый Омоновец, по 100 тысяч каждый рядовой. Пожарникам разрешили войти в Белый Дом только 5 октября,нужно было чтобы сгорели архивы и трупы. Не правда ли "ПУСТЯЧОК"!?
Качество видео: TVRip

Продолжительность: 00:17:44
Формат: avi
Видео: DivX 4, 528x400, 866 kbps
Аудио: русский, оригинал, MP3 2.0, 256 kbps

Код:

General
Complete name                    : C:\Users\Security\Videos\Мамонов\Фрагмент из фильма С. Говорухина Час Негодяев..avi
Format                           : AVI
Format/Info                      : Audio Video Interleave
File size                        : 144 MiB
Duration                         : 17mn 44s
Overall bit rate                 : 1 135 Kbps
Writing application              : Lavf52.93.0

Video
ID                               : 0
Format                           : MPEG-4 Visual
Format profile                   : Simple@L1
Format settings, BVOP            : No
Format settings, QPel            : No
Format settings, GMC             : No warppoints
Format settings, Matrix          : Default (H.263)
Codec ID                         : DIVX
Codec ID/Info                    : Project Mayo
Codec ID/Hint                    : DivX 4
Duration                         : 17mn 44s
Bit rate                         : 866 Kbps
Width                            : 528 pixels
Height                           : 400 pixels
Display aspect ratio             : 4/3
Frame rate                       : 25.000 fps
Resolution                       : 24 bits
Colorimetry                      : 4:2:0
Scan type                        : Progressive
Bits/(Pixel*Frame)               : 0.164
Stream size                      : 110 MiB (76%)
Writing library                  : Lavc52.108.0

Audio
ID                               : 1
Format                           : MPEG Audio
Format version                   : Version 1
Format profile                   : Layer 3
Codec ID                         : 55
Codec ID/Hint                    : MP3
Duration                         : 17mn 44s
Bit rate mode                    : Constant
Bit rate                         : 256 Kbps
Channel(s)                       : 2 channels
Sampling rate                    : 44.1 KHz
Resolution                       : 16 bits
Stream size                      : 32.5 MiB (23%)
Alignment                        : Aligned on interleaves
Interleave, duration             : 26 ms (0.65 video frame)
Writing library                  : LAME3.98.4

picpicpicpicpic
Для увеличения картинки щелкните мышкой по превью

Этот торрент недоступен для скачивания без регистрации, однако доступен по публичной magnet-ссылке (источники с публичных трекеров). Перед использованием ссылки прочтите, пожалуйста Пользовательское соглашение, а также как можно дольше оставайтесь на раздаче! Для того, чтобы скачать сам торрент-файл (который видит больше источников), а также для того, чтобы поблагодарить релизера, вам необходимо зарегистрироваться. Если регистрироваться лень - вы можете также попробовать скачать релиз по нашим партнерским ссылкам ниже.

[underverse.su].t25729.torrent
Трекер: Зарегистрирован   [ 03.04.2013 06:10 ]  

Статус: проверено (by Чертёнок at 03.04.2013 10:30)
Поблагодарили: 2 человека
Тип торрента: публичный - доступные источники с открытых трекеров: 
Размер: 144 MB (занимает 0,03 DVDR, для записи нужно 1 болванка DVDR/RW)
 
 


Последний раз редактировалось: матроскин (03.04.2013 07:19), всего редактировалось 1 раз

матроскин Пол:Муж

03-Апр-2013 06:18

Качайте и смотрите документальные фильмы!

.

матроскин Пол:Муж

05-Апр-2013 20:19

ВОТ ЭТИ ПРИЗЫВАЛИ РАССТРЕЛИВАТЬ НАРОД В ДОМЕ СОВЕТОВ В 1993 ГОДУ, ПОДОНКОВ НАДО ЗНАТЬ В ЛИЦО


Яндекс.Метрика powered by Sphinx


В Н И М А Н И Е
Сайт не распространяет и не хранит электронные версии произведений, а лишь бесплатно и без коммерческой выгоды (не требуя взамен платы,
SMS и т.д.) предоставляет доступ к создаваемому пользователями каталогу ссылок на торрент-файлы, которые содержат только списки хеш-сумм.
Убедительная просьба с жалобами обращаться напрямую к пользователю, разместившему торрент файл.

Вверх