Loading...
Error

Код доступа «Кейптаун» / Safe House (Дэниэл Эспиноза / Daniel Espinosa) [2012 г., боевик, триллер, криминал, HDRip] Dub

Статистика раздачи
Размер:  743 MB   |    Зарегистрирован:  3 года 8 месяцев   |    Скачан:  22 раза

Полного источника не было: 8 месяцев

Сидов:  0  |  0 KB/s  ]   Личеров:  0  |  0 KB/s  ]

* - сиды/пиры с внешних источников

   
 
Автор Сообщение

Gaarochi Пол:Муж

02-Апр-2013 08:31

Код доступа «Кейптаун» / Safe House
«No One Is Safe»
Год выпуска: 2012
Жанр: боевик, триллер, криминал
Страна: США , ЮАР
Режиссер: Дэниэл Эспиноза / Daniel Espinosa
В ролях: Дензел Вашингтон, Райан Рейнольдс, Вера Фармига, Брендан Глисон, Сэм Шепард, Рубен Бладес, Нора Арнезедер, Роберт Патрик, Лиам Каннингэм, Юэль Киннаман



Сюжет фильма:
Выпускник Гарварда Мэтт мечтает со своей невестой переехать в Париж. Но она не знает, что уже год он работает на ЦРУ. Легендарный агент ЦРУ Фрост владеет секретной информацией. Но он вышел из-под контроля, и теперь его главное правило: «не доверяй никому тебя предаст каждый». Их пути пересекутся в одном из красивейших городов мира Кейптауне, где каждый должен будет сделать свой выбор...

  • Мировая премьера: 7 февраля 2012
  • Российская премьера: 9 февраля 2012, «UPI»
MPAA: R - Лицам до 17 лет обязательно присутствие взрослого





Качество видео: HDRip[Рип с 720p]
Продолжительность: 01:54:55
Формат: AVI
Видео: XviD, 688x288, ~766 kbps avg
Аудио: русский, дублированный [лицензия], MP3 2.0, ~128.00 kbps avg

Код:

General
 Complete name : Kod.Dostupa.Keiptaun.2012.HDRip.avi
 Format : AVI
 Format/Info : Audio Video Interleave
 File size : 743 MiB
 Duration : 1h 54mn
 Overall bit rate : 904 Kbps
 Writing application : VirtualDubMod 1.5.10.2 (build 2542/release)
 Writing library : VirtualDubMod build 2542/release

Video
 ID : 0
 Format : MPEG-4 Visual
 Format profile : Advanced Simple@L5
 Format settings, BVOP : 1
 Format settings, QPel : No
 Format settings, GMC : No warppoints
 Format settings, Matrix : Custom
 Codec ID : XVID
 Codec ID/Hint : XviD
 Duration : 1h 54mn
 Bit rate : 766 Kbps
 Width : 688 pixels
 Height : 288 pixels
 Display aspect ratio : 2.40:1
 Frame rate : 23.976 fps
 Color space : YUV
 Chroma subsampling : 4:2:0
 Bit depth : 8 bits
 Scan type : Progressive
 Compression mode : Lossy
 Bits/(Pixel*Frame) : 0.161
 Stream size : 630 MiB (85%)
 Writing library : XviD 1.2.1 (UTC 2008-12-04)

Audio
 ID : 1
 Format : MPEG Audio
 Format version : Version 1
 Format profile : Layer 3
 Mode : Joint stereo
 Codec ID : 55
 Codec ID/Hint : MP3
 Duration : 1h 54mn
 Bit rate mode : Constant
 Bit rate : 128 Kbps
 Channel(s) : 2 channels
 Sampling rate : 48.0 KHz
 Compression mode : Lossy
 Stream size : 105 MiB (14%)
 Alignment : Aligned on interleaves
 Interleave, duration : 42 ms (1.00 video frame)
 Interleave, preload duration : 504 ms
 Writing library : LAME3.99r
 Encoding settings : -m j -V 4 -q 2 -lowpass 17 -b 128

picpicpicpicpic
Для увеличения картинки щелкните мышкой по превью

Этот торрент недоступен для скачивания без регистрации, однако доступен по публичной magnet-ссылке (источники с публичных трекеров). Перед использованием ссылки прочтите, пожалуйста Пользовательское соглашение, а также как можно дольше оставайтесь на раздаче! Для того, чтобы скачать сам торрент-файл (который видит больше источников), а также для того, чтобы поблагодарить релизера, вам необходимо зарегистрироваться. Если регистрироваться лень - вы можете также попробовать скачать релиз по нашим партнерским ссылкам ниже.

[underverse.su].t25695.torrent
Трекер: Зарегистрирован   [ 02.04.2013 08:31 ]  

Статус: проверено (by Паукан at 02.04.2013 08:54)
Поблагодарили: 1 человек
Тип торрента: публичный - доступные источники с открытых трекеров: 
Размер: 743 MB (занимает 0,17 DVDR, для записи нужно 1 болванка DVDR/RW)
 
 
Похожие темы
Форум Тема Автор Торрент Отв. Посл. сооб.
Зарубежное кино [DVDRip, Low-Res HDRip, и т.д.] Код доступа «Кейптаун» / Safe House (Дэниэл Эспиноза) [2012 г., боевик, триллер, криминал, детектив, HDRip] zubroma
0 | 0

0 | 723

47

06.06.2012 16:07

Зарубежное кино [DVDRip, Low-Res HDRip, и т.д.] Код доступа «София» / Sofia (Айзек Флорентайн) [2012 г., боевик, триллер, драма, DVDRip] nemos
0 | 0

1 | 877

40

22.07.2012 19:17

Зарубежное кино [DVDRip, Low-Res HDRip, и т.д.] Код доступа «София» / Sofia / Assassin's Bullet (Айзек Флорентайн) [2012 г., боевик, триллер, драма, HDRip] [лицензия] 90ytr90
10 | 0

0 | 635

39

16.09.2012 09:30

Зарубежное кино HQ Код доступа «Кейптаун» / Safe House (Дэниэл Эспиноза) [2012 г., боевик, триллер, криминал, детектив, HDRip] (Rus, Eng) HQ Underverse HQ Underverse
0 | 0

1 | 1024

73

09.06.2012 15:20

* Архив Код доступа: РАЙ / Paradise Cracked [2003 г., Strategy (Turn-based / Tactical) / RPG / 3D] RUS gvg90

3 | 2065

30.08.2010 01:31


Яндекс.Метрика powered by Sphinx


В Н И М А Н И Е
Сайт не распространяет и не хранит электронные версии произведений, а лишь бесплатно и без коммерческой выгоды (не требуя взамен платы,
SMS и т.д.) предоставляет доступ к создаваемому пользователями каталогу ссылок на торрент-файлы, которые содержат только списки хеш-сумм.
Убедительная просьба с жалобами обращаться напрямую к пользователю, разместившему торрент файл.

Вверх