Loading...
Error

В Августе 44-го (Михаил Пташук ) [2001 г., военный, DVDRip]

Статистика раздачи
Размер:  1,46 GB   |    Зарегистрирован:  2 года 10 месяцев   |    Скачан:  13 раз

Полного источника не было: 1 час 1 минута

Сидов:  0  |  0 KB/s  ]   Личеров:  0  |  0 KB/s  ]

* - сиды/пиры с внешних источников

   
 
Автор Сообщение

матроскин Пол:Муж

31-Мар-2013 20:22

В Августе 44-го


Год выпуска: 2001
Жанр: военный
Страна: Россия
Режиссер: Михаил Пташук
В ролях: Евгений Миронов, Владислав Галкин, Юрий Колокольников, Алексей Петренко, Александр Феклистов, Алексей Панин, Беата Тышкевич, Каролина Грушка, Рамаз Чхиквадзе, Александр Балуев
Сюжет фильма:
Фильм снят пo poмaнy Bлaдимиpa Бoгoмoлoвa «Момент истины, или В августе 44-го...» o paбoтe кoнтpaззвeдки CMEPШ в гoды вoйны нa тoлькo чтo ocвoбoждeннoй oт фaшиcтoв тeppитopии.
События происходят в августе 1944 года. На территории освобождённой Белоруссии действуют вражеские агенты. Регулярно в эфир выходит неуловимая радиостанция, передающая шифровки. Капитан Алёхин и его оперативная группа раскрывают замысел противника и захватывают шпионов в последние минуты перед неизбежной войсковой операцией.
Освобожденные территории Западной Белоруссии августа 1944: леса заваленные горами трупов и арсеналами оружия, неприязнь населения к советским войскам – идеальная ситуация для подрывной работы диверсантов в нашем тылу.
Контрразведчикам из СМЕРШа – трем молодым офицерам, поручено в кратчайшие сроки разыскать диверсионную группу .


Качество видео: DVDRip

Продолжительность: 01:45:10
Формат: avi
Видео: XviD, 688x416, 1783 kbps
Аудио: русский, оригинал, AC3 2.0, 192 kbps

Код:

General
Complete name                    : C:\Users\Security\Videos\Мамонов\В Августе 44.avi
Format                           : AVI
Format/Info                      : Audio Video Interleave
File size                        : 1.46 GiB
Duration                         : 1h 45mn
Overall bit rate                 : 1 985 Kbps
Director                         : zim2001
Writing application              : VirtualDubMod 1.5.10.2 (build 2540/release)

Video
ID                               : 0
Format                           : MPEG-4 Visual
Format profile                   : Streaming Video@L1
Format settings, BVOP            : Yes
Format settings, QPel            : No
Format settings, GMC             : No warppoints
Format settings, Matrix          : Custom
Codec ID                         : XVID
Codec ID/Hint                    : XviD
Duration                         : 1h 45mn
Bit rate                         : 1 784 Kbps
Width                            : 688 pixels
Height                           : 416 pixels
Display aspect ratio             : 1.654
Frame rate                       : 25.000 fps
Resolution                       : 24 bits
Colorimetry                      : 4:2:0
Scan type                        : Progressive
Bits/(Pixel*Frame)               : 0.249
Stream size                      : 1.31 GiB (90%)
Writing library                  : XviD 1.2.1 (UTC 2008-12-04)

Audio
ID                               : 1
Format                           : AC-3
Format/Info                      : Audio Coding 3
Codec ID                         : 2000
Duration                         : 1h 45mn
Bit rate mode                    : Constant
Bit rate                         : 192 Kbps
Channel(s)                       : 2 channels
Channel positions                : L R
Sampling rate                    : 48.0 KHz
Stream size                      : 144 MiB (10%)
Alignment                        : Split accross interleaves
Interleave, duration             : 40 ms (1.00 video frame)
Interleave, preload duration     : 500 ms

picpicpicpicpicpic

Этот торрент недоступен для скачивания без регистрации, однако доступен по публичной magnet-ссылке (источники с публичных трекеров). Перед использованием ссылки прочтите, пожалуйста Пользовательское соглашение, а также как можно дольше оставайтесь на раздаче! Для того, чтобы скачать сам торрент-файл (который видит больше источников), а также для того, чтобы поблагодарить релизера, вам необходимо зарегистрироваться. Если регистрироваться лень - вы можете также попробовать скачать релиз по нашим партнерским ссылкам ниже.

[underverse.su].t35294.torrent
Трекер: Зарегистрирован   [ 16.01.2014 15:30 ]  

Статус: проверено (by матроскин at 16.01.2014 15:32)
Поблагодарили: 3 человека
Тип торрента: публичный - доступные источники с открытых трекеров: 
Размер: 1,46 GB (занимает 1/3 DVDR, для записи нужно 1 болванка DVDR/RW)
 
 
Похожие темы
Форум Тема Автор Торрент Отв. Посл. сооб.
Наше кино [DVD / HDDVD / BD / Remux] В августе 44-го (Михаил Пташук) [2001 г., боевик, триллер, драма, детектив, военный, DVD-5] vasilich619
0 | 0

1 | 1870

5

09.12.2013 14:47



Последний раз редактировалось: матроскин (19.01.2014 10:30), всего редактировалось 8 раз(а)

oksana0758 Пол:Жен

01-Апр-2013 06:11

Хороший фильм! :good:

матроскин Пол:Муж

01-Апр-2013 19:39


Яндекс.Метрика powered by Sphinx


В Н И М А Н И Е
Сайт не распространяет и не хранит электронные версии произведений, а лишь бесплатно и без коммерческой выгоды (не требуя взамен платы,
SMS и т.д.) предоставляет доступ к создаваемому пользователями каталогу ссылок на торрент-файлы, которые содержат только списки хеш-сумм.
Убедительная просьба с жалобами обращаться напрямую к пользователю, разместившему торрент файл.

Вверх