Loading...
Error

Укрощение блицкрига [2011 г., исторический, военный, HDTVRip]

Статистика раздачи
Размер:  516 MB   |    Зарегистрирован:  3 года 8 месяцев   |    Скачан:  3 раза
Сидов:  1  |  0 KB/s  ]   Личеров:  0  |  0 KB/s  ]

* - сиды/пиры с внешних источников

   
 
Автор Сообщение

матроскин Пол:Муж

31-Мар-2013 18:52

Укрощение блицкрига


Год выпуска: 2011
Жанр: исторический, военный
Страна: Россия
Режиссер: Дмитрий Новиков
Ведущий: Владимир Гостюхин
Сюжет фильма:
Фильм о героической борьбе Советского народа против фашистских захватчиков на первых этапах Великой Отечественной войны.
Качество видео: HDTVRip

Продолжительность: 00:27:49
Формат: avi
Видео: DivX, 852x480, 2454 kbps
Аудио: русский, оригинал, MP3 2.0, 128 kbps

Код:

General
Complete name                    : C:\Users\Security\Desktop\Укрощение блицкрига\Укрощение блицкрига.avi
Format                           : AVI
Format/Info                      : Audio Video Interleave
File size                        : 516 MiB
Duration                         : 27mn 49s
Overall bit rate                 : 2 595 Kbps
Writing application              : Lavf52.64.2

Video
ID                               : 0
Format                           : MPEG-4 Visual
Format profile                   : Simple@L1
Format settings, BVOP            : No
Format settings, QPel            : No
Format settings, GMC             : No warppoints
Format settings, Matrix          : Default (H.263)
Codec ID                         : divx
Codec ID/Info                    : Mainly used by Google
Codec ID/Hint                    : DivX
Duration                         : 27mn 48s
Bit rate                         : 2 454 Kbps
Width                            : 852 pixels
Height                           : 480 pixels
Display aspect ratio             : 16/9
Frame rate                       : 25.000 fps
Resolution                       : 24 bits
Colorimetry                      : 4:2:0
Scan type                        : Progressive
Bits/(Pixel*Frame)               : 0.240
Stream size                      : 488 MiB (95%)
Writing library                  : Lavc52.72.2

Audio
ID                               : 1
Format                           : MPEG Audio
Format version                   : Version 1
Format profile                   : Layer 3
Codec ID                         : 55
Codec ID/Hint                    : MP3
Duration                         : 27mn 49s
Bit rate mode                    : Constant
Bit rate                         : 128 Kbps
Channel(s)                       : 2 channels
Sampling rate                    : 48.0 KHz
Resolution                       : 16 bits
Stream size                      : 25.5 MiB (5%)
Alignment                        : Aligned on interleaves
Interleave, duration             : 24 ms (0.60 video frame)
Writing library                  : LAME3.98.4

picpicpicpicpicpic
Для увеличения картинки щелкните мышкой по превью

Этот торрент недоступен для скачивания без регистрации, однако доступен по публичной magnet-ссылке (источники с публичных трекеров). Перед использованием ссылки прочтите, пожалуйста Пользовательское соглашение, а также как можно дольше оставайтесь на раздаче! Для того, чтобы скачать сам торрент-файл (который видит больше источников), а также для того, чтобы поблагодарить релизера, вам необходимо зарегистрироваться. Если регистрироваться лень - вы можете также попробовать скачать релиз по нашим партнерским ссылкам ниже.

[underverse.su].t25642.torrent
Трекер: Зарегистрирован   [ 31.03.2013 18:52 ]  

Статус: проверено (by Чертёнок at 31.03.2013 19:25)
Поблагодарили: пока никто не поблагодарил...
Тип торрента: публичный - доступные источники с открытых трекеров: 
Размер: 516 MB (занимает 0,12 DVDR, для записи нужно 1 болванка DVDR/RW)
 
 
Похожие темы
Форум Тема Автор Торрент Отв. Посл. сооб.
Зарубежное кино [DVDRip, Low-Res HDRip, и т.д.] Укрощение строптивого / Il bisbetico domato (Франко Кастеллано / Franco Castellano, Джузеппе Моччиа / Giuseppe Moccia) [1980 г., комедия, BDRip] 2xMVO + Dub/MVO + AVO (Мудров) 90ytr90
5 | 0

0 | 1764

28

14.12.2013 18:38

Зарубежное кино [DVDRip, Low-Res HDRip, и т.д.] Укрощение строптивого / Il bisbetico domato (Франко Кастеллано / Franco Castellano, Джузеппе Моччиа / Giuseppe Moccia) [1980 г., комедия, HDRip] Dub/MVO 90ytr90
167 | 5

0 | 429

6

25.09.2016 11:59

Наше кино [DVDRip, Low-Res HDRip, и т.д.] Укрощение строптивых (Игорь Каленов) [2009 г., комедия, BDRip] garry
3 | 0

0 | 1137

17

18.12.2012 13:15

Кино СССР Укрощение огня (Даниил Храбровицкий) [1972 г., драма, военный, биография, история, DVDRip] 90ytr90
0 | 0

0 | 1388

5

03.11.2013 14:20

Зарубежное кино [HDDVDRip / BDRip / WEB-DL / HDTV 1080/720р] Укрощение строптивого / Il bisbetico domato (Франко Кастеллано / Franco Castellano, Джузеппе Моччиа / Giuseppe Moccia) [1980 г., комедия, BDRip 1080p] [Ger Transfer] Dub/MVO + 2xMVO + Original (Ita) 90ytr90
12 | 1

1 | 399

5

27.09.2016 20:17

матроскин Пол:Муж

31-Мар-2013 18:54

Качайте и смотрите документальные фильмы!

.

Hranitel Пол:Муж

26-Апр-2013 20:28

Только Сталин и взращенный им Советский народ могли сломать хребет проклятому блицкригу. Автору-благодарность!

Яндекс.Метрика powered by Sphinx


В Н И М А Н И Е
Сайт не распространяет и не хранит электронные версии произведений, а лишь бесплатно и без коммерческой выгоды (не требуя взамен платы,
SMS и т.д.) предоставляет доступ к создаваемому пользователями каталогу ссылок на торрент-файлы, которые содержат только списки хеш-сумм.
Убедительная просьба с жалобами обращаться напрямую к пользователю, разместившему торрент файл.

Вверх