Loading...
Error

Беларусь не по телевизору [2011 г., документальный ( короткометражный ), HDTVRip]

Статистика раздачи
Размер:  96 MB   |    Зарегистрирован:  3 года 8 месяцев   |    Скачан:  7 раз
Сидов:  1  |  0 KB/s  ]   Личеров:  0  |  0 KB/s  ]

* - сиды/пиры с внешних источников

   
 
Автор Сообщение

матроскин Пол:Муж

31-Мар-2013 17:19

Беларусь не по телевизору


Год выпуска: 2011
Жанр: документальный ( короткометражный )
Страна: Россия
Выпущено: Политпросвет ТВ
Ведущий: Сергей Беликов
Сюжет фильма:
Беларуссия как она есть на самом деле. Колхозные поля все ухоженны, дороги замечательные, страна процветает. Люди, земля, поля, фермы - все работает, нет ни одного клочка заброшенной земли, и все это поражает по сравнению с Россией! А в России полный бардак и разруха…..
Качество видео: HDTVRip

Продолжительность: 00:05:09
Формат: avi
Видео: DivX, 852x480, 2472 kbps
Аудио: русский, оригинал, MP3 2.0, 128 kbps

Код:

General
Complete name                    : C:\Users\Security\Videos\Мамонов\Белоруссия не по телевизору.avi
Format                           : AVI
Format/Info                      : Audio Video Interleave
File size                        : 96.4 MiB
Duration                         : 5mn 9s
Overall bit rate                 : 2 612 Kbps
Writing application              : Lavf52.64.2

Video
ID                               : 0
Format                           : MPEG-4 Visual
Format profile                   : Simple@L1
Format settings, BVOP            : No
Format settings, QPel            : No
Format settings, GMC             : No warppoints
Format settings, Matrix          : Default (H.263)
Codec ID                         : divx
Codec ID/Info                    : Mainly used by Google
Codec ID/Hint                    : DivX
Duration                         : 5mn 9s
Bit rate                         : 2 473 Kbps
Width                            : 852 pixels
Height                           : 480 pixels
Display aspect ratio             : 16/9
Frame rate                       : 25.000 fps
Resolution                       : 24 bits
Colorimetry                      : 4:2:0
Scan type                        : Progressive
Bits/(Pixel*Frame)               : 0.242
Stream size                      : 91.2 MiB (95%)
Writing library                  : Lavc52.72.2

Audio
ID                               : 1
Format                           : MPEG Audio
Format version                   : Version 1
Format profile                   : Layer 3
Codec ID                         : 55
Codec ID/Hint                    : MP3
Duration                         : 5mn 9s
Bit rate mode                    : Constant
Bit rate                         : 128 Kbps
Channel(s)                       : 2 channels
Sampling rate                    : 48.0 KHz
Resolution                       : 16 bits
Stream size                      : 4.72 MiB (5%)
Alignment                        : Aligned on interleaves
Interleave, duration             : 24 ms (0.60 video frame)
Writing library                  : LAME3.98.4

Дополнительная информация:
для просмотра на компьютере

picpicpicpicpicpic
Для увеличения картинки щелкните мышкой по превью

Этот торрент недоступен для скачивания без регистрации, однако доступен по публичной magnet-ссылке (источники с публичных трекеров). Перед использованием ссылки прочтите, пожалуйста Пользовательское соглашение, а также как можно дольше оставайтесь на раздаче! Для того, чтобы скачать сам торрент-файл (который видит больше источников), а также для того, чтобы поблагодарить релизера, вам необходимо зарегистрироваться. Если регистрироваться лень - вы можете также попробовать скачать релиз по нашим партнерским ссылкам ниже.

[underverse.su].t25637.torrent
Трекер: Зарегистрирован   [ 31.03.2013 17:19 ]  

Статус: проверено (by Чертёнок at 31.03.2013 18:14)
Поблагодарили: пока никто не поблагодарил...
Тип торрента: публичный - доступные источники с открытых трекеров: 
Размер: 96 MB (занимает 0,02 DVDR, для записи нужно 1 болванка DVDR/RW)
 
 


Последний раз редактировалось: матроскин (31.03.2013 17:31), всего редактировалось 1 раз

матроскин Пол:Муж

31-Мар-2013 17:21

Предлагаю посмотреть короткометражный фильм и Вы все поймете,что за кость в горле торчит у России Беларуссия!!!


Яндекс.Метрика powered by Sphinx


В Н И М А Н И Е
Сайт не распространяет и не хранит электронные версии произведений, а лишь бесплатно и без коммерческой выгоды (не требуя взамен платы,
SMS и т.д.) предоставляет доступ к создаваемому пользователями каталогу ссылок на торрент-файлы, которые содержат только списки хеш-сумм.
Убедительная просьба с жалобами обращаться напрямую к пользователю, разместившему торрент файл.

Вверх