Loading...
Error

Няньки (Ашот Кещян) [2012 г., комедия, семейный, BDRip-AVC]

Статистика раздачи
Размер:  1,45 GB   |    Зарегистрирован:  4 года 4 месяца   |    Скачан:  24 раза

Полного источника не было: 1 год 1 месяц

Сидов:  0  |  0 KB/s  ]   Личеров:  0  |  0 KB/s  ]

* - сиды/пиры с внешних источников

   
 
Автор Сообщение

TERRAN Пол:Муж

31-Мар-2013 17:07

Няньки


Год выпуска: 2012
Жанр: комедия, семейный
Страна: Россия
Продолжительность: 01:33:44
Перевод: Не требуется

Режиссер: Ашот Кещян

В ролях: Николай Наумов, Арарат Кещян, Аглая Шиловская, Людмила Артемьева, Олеся Железняк, Ангелина Добророднова, Глеб Сердюков, Илья Костюков, Дитер Брандекер, Микаэль Барал
Сюжет фильма:
Валентина — жесткая, хладнокровная владелица крупной туристической фирмы, которой предстоит решение сложной задачи в стране, где женщину, независимо от профессионализма, не может ждать успех в бизнесе — Турции. На помощь она вызывает работников своего уральского филиала Диму и Мишу — безынициативных лодырей, по несчастливой случайности оказавшихся единственными сотрудниками мужского пола.

Предполагаемый отпуск за границей оборачивается для безответственных весельчаков не только последним шансом доказать свою профпригодность и избежать позорного увольнения, но и представляет угрозу для здоровья и жизни: по роковому стечению обстоятельств Миша и Дима остаются один на один с тремя неуправляемыми детьми Валентины.

А, как известно, беда не приходит одна, поэтому, когда приезжает мама Валентины якобы присмотреть за внуками, задачи для молодых людей усложняются появлением практически еще одного ребенка, который требует за собой не меньшего присмотра, чем реальные дети. Теперь друзьям придется разбираться и с детьми, и с бабушкой, и с немецкими конкурентами, и все это — в попытках не провалить судьбоносную сделку. Смогут ли наши герои справиться с заданием и завоевать расположение Валентины и ее детей?

  • Мировая премьера: 26 апреля 2012
  • Российская премьера: 26 апреля 2012, «Каропрокат»

Качество видео: BDRip-AVC

Качество видео: BDRip-AVC | исх. Blu-ray Disc 1080p |
Формат видео: MKV
Формат аудио: AC3
Видео: 960x408 (2.35:1), 24.000 fps, AVC ~1 838 Kbps, 0.196 bit/pixel
Аудио: 48 kHz, AC3 Dolby Digital, 3/2 (L,C,R,l,r) + LFE ch, ~384.00 kbps avg

Код:

General
 Unique ID : 234149909911800277106498759113447640590 (0xB027A1DE3F3F3311AF4389CE94110E0E)
 Complete name : D:\Фильмы\Рипы\Няньки.BDRip-AVC.1.45.by Matroska.mkv
 Format : Matroska
 Format version : Version 2
 File size : 1.45 GiB
 Duration : 1h 33mn
 Overall bit rate : 2 221 Kbps
 Encoded date : UTC 2012-05-30 16:10:59
 Writing application : mkvmerge v5.2.0 ('I can't explain') built on Dec 18 2011 18:12:03
 Writing library : libebml v1.2.3 + libmatroska v1.3.0

Video
 ID : 1
 Format : AVC
 Format/Info : Advanced Video Codec
 Format profile : High@L4.0
 Format settings, CABAC : Yes
 Format settings, ReFrames : 15 frames
 Codec ID : V_MPEG4/ISO/AVC
 Duration : 1h 33mn
 Bit rate : 1 838 Kbps
 Width : 960 pixels
 Height : 408 pixels
 Display aspect ratio : 2.35:1
 Frame rate : 24.000 fps
 Color space : YUV
 Chroma subsampling : 4:2:0
 Bit depth : 8 bits
 Scan type : Progressive
 Bits/(Pixel*Frame) : 0.196
 Stream size : 1.17 GiB (81%)
 Title : Няньки.BDRip-AVC; by encoderrr
 Writing library : x264 core 124 r2197 69a0443
 Encoding settings : cabac=1 / ref=15 / deblock=1:-2:-1 / analyse=0x3:0x133 / me=umh / subme=10 / psy=1 / psy_rd=1.00:0.00 / mixed_ref=1 / me_range=32 / chroma_me=1 / trellis=2 / 8x8dct=1 / cqm=0 / deadzone=21,11 / fast_pskip=0 / chroma_qp_offset=-2 / threads=6 / sliced_threads=0 / nr=0 / decimate=1 / interlaced=0 / bluray_compat=0 / constrained_intra=0 / bframes=8 / b_pyramid=2 / b_adapt=2 / b_bias=0 / direct=3 / weightb=1 / open_gop=0 / weightp=2 / keyint=250 / keyint_min=24 / scenecut=40 / intra_refresh=0 / rc_lookahead=60 / rc=2pass / mbtree=1 / bitrate=1838 / ratetol=1.0 / qcomp=0.60 / qpmin=0 / qpmax=69 / qpstep=4 / cplxblur=20.0 / qblur=0.5 / vbv_maxrate=20000 / vbv_bufsize=20000 / nal_hrd=none / ip_ratio=1.40 / aq=2:1.00
 Language : English
 Default : Yes
 Forced : No
 Matrix coefficients : BT.709-5, BT.1361, IEC 61966-2-4 709, SMPTE RP177

Audio
 ID : 2
 Format : AC-3
 Format/Info : Audio Coding 3
 Mode extension : CM (complete main)
 Codec ID : A_AC3
 Duration : 1h 33mn
 Bit rate mode : Constant
 Bit rate : 384 Kbps
 Channel(s) : 6 channels
 Channel positions : Front: L C R, Side: L R, LFE
 Sampling rate : 48.0 KHz
 Bit depth : 16 bits
 Compression mode : Lossy
 Stream size : 257 MiB (17%)
 Default : Yes
 Forced : No
picpicpic
Для увеличения картинки щелкните мышкой по превью

Этот торрент недоступен для скачивания без регистрации, однако доступен по публичной magnet-ссылке (источники с публичных трекеров). Перед использованием ссылки прочтите, пожалуйста Пользовательское соглашение, а также как можно дольше оставайтесь на раздаче! Для того, чтобы скачать сам торрент-файл (который видит больше источников), а также для того, чтобы поблагодарить релизера, вам необходимо зарегистрироваться. Если регистрироваться лень - вы можете также попробовать скачать релиз по нашим партнерским ссылкам ниже.

[underverse.su].t25635.torrent
Трекер: Зарегистрирован   [ 31.03.2013 17:07 ]  

Статус: проверено (by Jimmy at 31.03.2013 18:04)
Поблагодарили: 1 человек
Тип торрента: публичный - доступные источники с открытых трекеров: 
Размер: 1,45 GB (занимает 1/3 DVDR, для записи нужно 1 болванка DVDR/RW)
 
 
Похожие темы
Форум Тема Автор Торрент Отв. Посл. сооб.
Наше кино [DVDRip, Low-Res HDRip, и т.д.] Няньки (Ашот Кещян) [2012 г., комедия, HDRip] RG NewCinema
0 | 0

0 | 900

64

30.05.2012 04:49

Наше кино HQ Няньки (Ашот Кещян) [2012 г., комедия, HDRip] HQ Underverse HQ Underverse
0 | 0

1 | 1313

40

28.03.2016 12:09


Яндекс.Метрика powered by Sphinx


В Н И М А Н И Е
Сайт не распространяет и не хранит электронные версии произведений, а лишь бесплатно и без коммерческой выгоды (не требуя взамен платы,
SMS и т.д.) предоставляет доступ к создаваемому пользователями каталогу ссылок на торрент-файлы, которые содержат только списки хеш-сумм.
Убедительная просьба с жалобами обращаться напрямую к пользователю, разместившему торрент файл.

Вверх