Loading...
Error

Глухарь. Приходи, Новый год (Юрий Попович) [2009 г., комедия, детектив, DVDRip]

Статистика раздачи
Размер:  2,02 GB   |    Зарегистрирован:  4 года 4 месяца   |    Скачан:  2 раза

Полного источника не было: 2 года 4 месяца

Сидов:  0  |  0 KB/s  ]   Личеров:  0  |  0 KB/s  ]

* - сиды/пиры с внешних источников

   
 
Автор Сообщение

матроскин Пол:Муж

31-Мар-2013 16:17

Глухарь. Приходи, Новый год


Год выпуска: 2009
Жанр: комедия, детектив
Страна: Россия
Режиссер: Юрий Попович
В ролях: Максим Аверин, Денис Рожков, Виктория Тарасова, Мария Болтнева, Анастасия Мельникова, Андрей Федорцов, Владимир Фекленко, Софья Хилькова, Александр Бобров, Алексей Воробьев, Владислав Котлярский, Борис Покровский
Сюжет фильма:
Грядёт Новый год. Глухарев и Антошин пытаются раздобыть денег. С этой целью они фотографируют задержанного мошенника в милицейской форме и выдают его за погибшего следователя, который недавно устроился на работу в отдел. Ошарашенным сотрудникам ОВД ничего не остается делать, как сдавать деньги на похороны…. Узнав об этой хулиганской выходке своих подчиненных, Зимина в наказание оставляет друзей дежурить в новогоднюю ночь. 31 декабря юная беспризорница Вера крадет телефон у подруги Антошина Насти и требует с позвонившего Дениса деньги за аппарат.


Качество видео: DVDRip

Продолжительность: 03:51:31
Формат: avi
Видео: DivX 4, 720x576, 1142 kbps
Аудио: русский, оригинал, MP3 2.0, 256 kbps

Код:

General
Complete name                    : C:\Users\Security\Desktop\Новая папка\Глухарь Приходи,новый год.avi
Format                           : AVI
Format/Info                      : Audio Video Interleave
Format profile                   : OpenDML
File size                        : 2.02 GiB
Duration                         : 3h 51mn
Overall bit rate                 : 1 249 Kbps
Writing application              : Lavf52.93.0

Video
ID                               : 0
Format                           : MPEG-4 Visual
Format profile                   : Simple@L1
Format settings, BVOP            : No
Format settings, QPel            : No
Format settings, GMC             : No warppoints
Format settings, Matrix          : Default (H.263)
Codec ID                         : DIVX
Codec ID/Info                    : Project Mayo
Codec ID/Hint                    : DivX 4
Duration                         : 3h 51mn
Bit rate                         : 1 143 Kbps
Width                            : 720 pixels
Height                           : 576 pixels
Display aspect ratio             : 16/9
Frame rate                       : 25.000 fps
Standard                         : PAL
Resolution                       : 24 bits
Colorimetry                      : 4:2:0
Scan type                        : Progressive
Bits/(Pixel*Frame)               : 0.110
Stream size                      : 1.85 GiB (92%)
Writing library                  : Lavc52.108.0

Audio
ID                               : 1
Format                           : MPEG Audio
Format version                   : Version 1
Format profile                   : Layer 3
Codec ID                         : 55
Codec ID/Hint                    : MP3
Duration                         : 1h 31mn
Bit rate mode                    : Constant
Bit rate                         : 256 Kbps
Channel(s)                       : 2 channels
Sampling rate                    : 44.1 KHz
Resolution                       : 16 bits
Stream size                      : 167 MiB (8%)
Alignment                        : Aligned on interleaves
Interleave, duration             : 26 ms (0.65 video frame)
Interleave, preload duration     : 26 ms

picpicpicpicpicpic

Для увеличения картинки щелкните мышкой по превью

Этот торрент недоступен для скачивания без регистрации, однако доступен по публичной magnet-ссылке (источники с публичных трекеров). Перед использованием ссылки прочтите, пожалуйста Пользовательское соглашение, а также как можно дольше оставайтесь на раздаче! Для того, чтобы скачать сам торрент-файл (который видит больше источников), а также для того, чтобы поблагодарить релизера, вам необходимо зарегистрироваться. Если регистрироваться лень - вы можете также попробовать скачать релиз по нашим партнерским ссылкам ниже.

[underverse.su].t25631.torrent
Трекер: Зарегистрирован   [ 31.03.2013 16:17 ]  

Статус: проверено (by Jimmy at 31.03.2013 18:05)
Поблагодарили: пока никто не поблагодарил...
Тип торрента: публичный - доступные источники с открытых трекеров: 
Размер: 2,02 GB (занимает 0,46 DVDR, для записи нужно 1 болванка DVDR/RW)
 
 
Похожие темы
Форум Тема Автор Торрент Отв. Посл. сооб.
xUSSR сериалы Глухарь. Продолжение / Сезон: 2 / Серии: 1-24 из 24 (Тимур Алпатов, Валерий Мызников, Юрий Попович) [2009 г., драма, криминал, детектив, DVDRip] konopic
7 | 0

0 | 398

4

24.04.2014 08:39



Последний раз редактировалось: матроскин (31.03.2013 17:59), всего редактировалось 2 раз(а)

матроскин Пол:Муж

31-Мар-2013 19:20

Скачайте и посмотрите эту новогоднюю комедию.


Яндекс.Метрика powered by Sphinx


В Н И М А Н И Е
Сайт не распространяет и не хранит электронные версии произведений, а лишь бесплатно и без коммерческой выгоды (не требуя взамен платы,
SMS и т.д.) предоставляет доступ к создаваемому пользователями каталогу ссылок на торрент-файлы, которые содержат только списки хеш-сумм.
Убедительная просьба с жалобами обращаться напрямую к пользователю, разместившему торрент файл.

Вверх