Loading...
Error

Парад военной немощи [2011 г., военный, HDTVRip]

Статистика раздачи
Размер:  94 MB   |    Зарегистрирован:  3 года 8 месяцев   |    Скачан:  10 раз
Сидов:  1  |  0 KB/s  ]   Личеров:  0  |  0 KB/s  ]

* - сиды/пиры с внешних источников

   
 
Автор Сообщение

матроскин Пол:Муж

31-Мар-2013 15:36

Парад военной немощи


Год выпуска: 2011
Жанр: военный
Страна: Россия
Выпущено: Политпросвет ТВ
Ведущий: Сергей Иванов
Сюжет фильма:
Прошло 20 лет после разрушения СССР, а нас по-прежнему защишает Советская военная техника.
Мы живы, пока живо наследие СССР.
Качество видео: HDTVRip

Продолжительность: 00:04:59
Формат: avi
Видео: DivX, 852x480, 2498 kbps
Аудио: русский, оригинал, MP3 2.0, 128 kbps

Код:

General
Complete name                    : C:\Users\Security\Videos\Мамонов\парад военной немощи.avi
Format                           : AVI
Format/Info                      : Audio Video Interleave
File size                        : 94.1 MiB
Duration                         : 4mn 59s
Overall bit rate                 : 2 638 Kbps
Writing application              : Lavf52.64.2

Video
ID                               : 0
Format                           : MPEG-4 Visual
Format profile                   : Simple@L1
Format settings, BVOP            : No
Format settings, QPel            : No
Format settings, GMC             : No warppoints
Format settings, Matrix          : Default (H.263)
Codec ID                         : divx
Codec ID/Info                    : Mainly used by Google
Codec ID/Hint                    : DivX
Duration                         : 4mn 58s
Bit rate                         : 2 499 Kbps
Width                            : 852 pixels
Height                           : 480 pixels
Display aspect ratio             : 16/9
Frame rate                       : 25.000 fps
Resolution                       : 24 bits
Colorimetry                      : 4:2:0
Scan type                        : Progressive
Bits/(Pixel*Frame)               : 0.244
Stream size                      : 89.0 MiB (95%)
Writing library                  : Lavc52.72.2

Audio
ID                               : 1
Format                           : MPEG Audio
Format version                   : Version 1
Format profile                   : Layer 3
Codec ID                         : 55
Codec ID/Hint                    : MP3
Duration                         : 4mn 59s
Bit rate mode                    : Constant
Bit rate                         : 128 Kbps
Channel(s)                       : 2 channels
Sampling rate                    : 48.0 KHz
Resolution                       : 16 bits
Stream size                      : 4.56 MiB (5%)
Alignment                        : Aligned on interleaves
Interleave, duration             : 24 ms (0.60 video frame)
Writing library                  : LAME3.98.4

Дополнительная информация:
для просмотра на компьютере

picpicpicpicpic pic
Для увеличения картинки щелкните мышкой по превью

Этот торрент недоступен для скачивания без регистрации, однако доступен по публичной magnet-ссылке (источники с публичных трекеров). Перед использованием ссылки прочтите, пожалуйста Пользовательское соглашение, а также как можно дольше оставайтесь на раздаче! Для того, чтобы скачать сам торрент-файл (который видит больше источников), а также для того, чтобы поблагодарить релизера, вам необходимо зарегистрироваться. Если регистрироваться лень - вы можете также попробовать скачать релиз по нашим партнерским ссылкам ниже.

[underverse.su].t25629.torrent
Трекер: Зарегистрирован   [ 31.03.2013 15:36 ]  

Статус: проверено (by Jimmy at 31.03.2013 16:43)
Поблагодарили: 3 человека
Тип торрента: публичный - доступные источники с открытых трекеров: 
Размер: 94 MB (занимает 0,02 DVDR, для записи нужно 1 болванка DVDR/RW)
 
 

матроскин Пол:Муж

31-Мар-2013 15:46

Смотрите документальное кино.


Последний раз редактировалось: матроскин (14.06.2013 10:50), всего редактировалось 1 раз

StormtrooperПол:Муж

31-Мар-2013 17:59

матроскин
Приветствую!Ребята уже рассказали.Я oleg1969 там ,здесь соответственно ....видите.Как там на счет "Сиамских близнецов"?В личку написать не могу так как меньше десяти сообщений.Ну думаю с Вашим приходом......Скоро еще мужики "поджтянутся".

матроскин Пол:Муж

31-Мар-2013 18:04

Stormtroopers писал(а):

матроскин
Приветствую!Ребята уже рассказали.Я oleg1969 там ,здесь соответственно ....видите.Как там на счет "Сиамских близнецов"?В личку написать не могу так как меньше десяти сообщений.Ну думаю с Вашим приходом......Скоро еще мужики "поджтянутся".
Большой привет! я пока фильм не нашел но постараюсь найти, я тут немного раздал релизов посмотри. Спасибо за дружбу!!!

матроскин Пол:Муж

01-Апр-2013 19:35

.

ПОЗДРАВЛЯЮ ВСЕХ С НАСТУПАЮЩИМ ПРАЗДНИКОМ С ДНЕМ ПОБЕДЫ!!!


Яндекс.Метрика powered by Sphinx


В Н И М А Н И Е
Сайт не распространяет и не хранит электронные версии произведений, а лишь бесплатно и без коммерческой выгоды (не требуя взамен платы,
SMS и т.д.) предоставляет доступ к создаваемому пользователями каталогу ссылок на торрент-файлы, которые содержат только списки хеш-сумм.
Убедительная просьба с жалобами обращаться напрямую к пользователю, разместившему торрент файл.

Вверх