Loading...
Error

Воплощенная мечта [2011 г., исторический, HDTVRip]

Статистика раздачи
Размер:  554 MB   |    Зарегистрирован:  3 года 8 месяцев   |    Скачан:  0 раз
Сидов:  1  |  0 KB/s  ]   Личеров:  0  |  0 KB/s  ]

* - сиды/пиры с внешних источников

   
 
Автор Сообщение

матроскин Пол:Муж

31-Мар-2013 14:44

Воплощенная мечта


Год выпуска: 2011
Жанр: исторический
Страна: Россия
Выпущено: КПРФ-ТВ
Ведущий: Евгений Кочергин
Сюжет фильма:
12 апреля 1961 года – обычный весенний день, но именно ему суждено было стать Днем рождения космической эры человечества. О полете в космос в мире говорили уже не одно десятилетие, его пророчили писатели-фантасты, его с нетерпением ждали мечтатели. Над ним бились ученые и конструкторы самых богатых государств, но воплотила в жизнь эту мечту Страна Советов. И началось все это с ликвидации неграмотности.
Качество видео: HDTVRip

Продолжительность: 00:30:08
Формат: avi
Видео: DivX, 852x480, 2431 kbps
Аудио: русский, оригинал, MP3 2.0, 128 kbps

Код:

General
Complete name                    : C:\Users\Security\Videos\Мамонов\Воплощенная мечта.avi
Format                           : AVI
Format/Info                      : Audio Video Interleave
File size                        : 554 MiB
Duration                         : 30mn 8s
Overall bit rate                 : 2 572 Kbps
Writing application              : Lavf52.64.2

Video
ID                               : 0
Format                           : MPEG-4 Visual
Format profile                   : Simple@L1
Format settings, BVOP            : No
Format settings, QPel            : No
Format settings, GMC             : No warppoints
Format settings, Matrix          : Default (H.263)
Codec ID                         : divx
Codec ID/Info                    : Mainly used by Google
Codec ID/Hint                    : DivX
Duration                         : 30mn 8s
Bit rate                         : 2 431 Kbps
Width                            : 852 pixels
Height                           : 480 pixels
Display aspect ratio             : 16/9
Frame rate                       : 25.000 fps
Resolution                       : 24 bits
Colorimetry                      : 4:2:0
Scan type                        : Progressive
Bits/(Pixel*Frame)               : 0.238
Stream size                      : 524 MiB (95%)
Writing library                  : Lavc52.72.2

Audio
ID                               : 1
Format                           : MPEG Audio
Format version                   : Version 1
Format profile                   : Layer 3
Codec ID                         : 55
Codec ID/Hint                    : MP3
Duration                         : 30mn 8s
Bit rate mode                    : Constant
Bit rate                         : 128 Kbps
Channel(s)                       : 2 channels
Sampling rate                    : 48.0 KHz
Resolution                       : 16 bits
Stream size                      : 27.6 MiB (5%)
Alignment                        : Aligned on interleaves
Interleave, duration             : 24 ms (0.60 video frame)

Дополнительная информация:
для просмотра на компьютере

picpicpicpicpicpic
Для увеличения картинки щелкните мышкой по превью[/align]

Этот торрент недоступен для скачивания без регистрации, однако доступен по публичной magnet-ссылке (источники с публичных трекеров). Перед использованием ссылки прочтите, пожалуйста Пользовательское соглашение, а также как можно дольше оставайтесь на раздаче! Для того, чтобы скачать сам торрент-файл (который видит больше источников), а также для того, чтобы поблагодарить релизера, вам необходимо зарегистрироваться. Если регистрироваться лень - вы можете также попробовать скачать релиз по нашим партнерским ссылкам ниже.

[underverse.su].t25628.torrent
Трекер: Зарегистрирован   [ 31.03.2013 14:44 ]  

Статус: проверено (by Чертёнок at 31.03.2013 16:55)
Поблагодарили: пока никто не поблагодарил...
Тип торрента: публичный - доступные источники с открытых трекеров: 
Размер: 554 MB (занимает 0,12 DVDR, для записи нужно 1 болванка DVDR/RW)
 
 

матроскин Пол:Муж

31-Мар-2013 14:50

Качайте и смотрите документальное кино!

Чертёнок Пол:Муж

31-Мар-2013 16:56

:good:

матроскин писал(а):

Качайте и смотрите документальное кино!
:big_thanks:

31-Мар-2013 16:56

Топик был перенесен из форума Другие фильмы в форум Научно-популярные фильмы


Чертёнок
 

Чертёнок Пол:Муж

31-Мар-2013 16:57

Дополнительная информация:
для просмотра на компьютере
:ROFL: :ROFL:

garry Пол:Муж

31-Мар-2013 17:14

Чертёнок
а что смешного? есть такие рипы, которые плеер не читает (не говоря уже про планшеты и мобилки)

Чертёнок Пол:Муж

31-Мар-2013 17:17

У меня всё читает :sorry:

gari писал(а):

Чертёнок
а что смешного? есть такие рипы, которые плеер не читает (не говоря уже про планшеты и мобилки)

garry Пол:Муж

31-Мар-2013 17:19

у меня БД-плеер годичной давности за все время не прочитал 2 рипа.

StormtrooperПол:Муж

31-Мар-2013 19:16

Тогда уж лучше выделить раздел СССР и туда такие фильмы постить.

garry Пол:Муж

31-Мар-2013 19:45

pic

кто дописал мне эту фразу?

Чертёнок Пол:Муж

31-Мар-2013 19:49

У меня 3 плеера если не идёт на одном то смотрю на другом. Это я нажал на цитату а получилось так :(

garry Пол:Муж

31-Мар-2013 19:50

Чертёнок
походу Вы нажали не на "цитата", а на "правка"...

Чертёнок Пол:Муж

31-Мар-2013 19:51

Значит перепутал :oops:

Яндекс.Метрика powered by Sphinx


В Н И М А Н И Е
Сайт не распространяет и не хранит электронные версии произведений, а лишь бесплатно и без коммерческой выгоды (не требуя взамен платы,
SMS и т.д.) предоставляет доступ к создаваемому пользователями каталогу ссылок на торрент-файлы, которые содержат только списки хеш-сумм.
Убедительная просьба с жалобами обращаться напрямую к пользователю, разместившему торрент файл.

Вверх