Loading...
Error

Я вас дождусь... (Яков Сегель ) [1982 г., военный, мелодрама, TVRip]

Статистика раздачи
Размер:  1,09 GB   |    Зарегистрирован:  3 года 8 месяцев   |    Скачан:  1 раз

Полного источника не было: 3 года 1 месяц

Сидов:  0  |  0 KB/s  ]   Личеров:  0  |  0 KB/s  ]

* - сиды/пиры с внешних источников

   
 
Автор Сообщение

матроскин Пол:Муж

31-Мар-2013 12:36

Я вас дождусь...


Год выпуска: 1982
Жанр: военный, мелодрама
Страна: СССР
Режиссер: Яков Сегель
В ролях: Екатерина Валюжинич, Зиновий Гердт, Артур Богатов,...
Сюжет фильма:
Михаил Капустин родился и вырос в центре Москвы. Ему 20 лет. Когда началась Великая Отечественная война, он сразу попал на фронт. И теперь, после ранения побывав в госпитале, Миша возвращается на фронт - и едет через Москву. До отхода эшелона у него есть несколько часов и он хочет навестить родной дом, увидеть ещё раз квартиру, где он жил до войны...


Качество видео: TVRip

Продолжительность: 01:03:48
Формат: avi
Видео: XviD, 704x528, 2251 kbps
Аудио: русский, оригинал, MP3 2.0, 192 kbps

Код:

General
Complete name                    : C:\Users\Security\Videos\Мамонов\Ja_vas_dozhdus`.avi
Format                           : AVI
Format/Info                      : Audio Video Interleave
File size                        : 1.09 GiB
Duration                         : 1h 3mn
Overall bit rate                 : 2 453 Kbps
Writing application              : VirtualDubModRus 1.5.10.2 (build 2542/release)
Writing library                  : VirtualDubMod build 2542/release

Video
ID                               : 0
Format                           : MPEG-4 Visual
Format profile                   : Streaming Video@L1
Format settings, BVOP            : Yes
Format settings, QPel            : No
Format settings, GMC             : No warppoints
Format settings, Matrix          : Default (H.263)
Muxing mode                      : Packed bitstream
Codec ID                         : XVID
Codec ID/Hint                    : XviD
Duration                         : 1h 3mn
Bit rate                         : 2 252 Kbps
Width                            : 704 pixels
Height                           : 528 pixels
Display aspect ratio             : 4/3
Frame rate                       : 25.000 fps
Resolution                       : 24 bits
Colorimetry                      : 4:2:0
Scan type                        : Progressive
Bits/(Pixel*Frame)               : 0.242
Stream size                      : 1.00 GiB (92%)
Writing library                  : XviD 63

Audio
ID                               : 1
Format                           : MPEG Audio
Format version                   : Version 1
Format profile                   : Layer 3
Codec ID                         : 55
Codec ID/Hint                    : MP3
Duration                         : 1h 3mn
Bit rate mode                    : Constant
Bit rate                         : 192 Kbps
Channel(s)                       : 2 channels
Sampling rate                    : 48.0 KHz
Resolution                       : 16 bits
Stream size                      : 87.6 MiB (8%)
Alignment                        : Aligned on interleaves
Interleave, duration             : 40 ms (1.00 video frame)
Interleave, preload duration     : 504 ms
Writing library                  : LAME3.97
Encoding settings                : -m s -V 4 -q 1 -b 192

picpicpicpicpicpic
Для увеличения картинки щелкните мышкой по превью

Этот торрент недоступен для скачивания без регистрации, однако доступен по публичной magnet-ссылке (источники с публичных трекеров). Перед использованием ссылки прочтите, пожалуйста Пользовательское соглашение, а также как можно дольше оставайтесь на раздаче! Для того, чтобы скачать сам торрент-файл (который видит больше источников), а также для того, чтобы поблагодарить релизера, вам необходимо зарегистрироваться. Если регистрироваться лень - вы можете также попробовать скачать релиз по нашим партнерским ссылкам ниже.

[underverse.su].t25621.torrent
Трекер: Зарегистрирован   [ 31.03.2013 12:36 ]  

Статус: проверено (by Чертёнок at 31.03.2013 12:55)
Поблагодарили: 1 человек
Тип торрента: публичный - доступные источники с открытых трекеров: 
Размер: 1,09 GB (занимает 0,25 DVDR, для записи нужно 1 болванка DVDR/RW)
 
 

матроскин Пол:Муж

01-Апр-2013 19:38

.

Яндекс.Метрика powered by Sphinx


В Н И М А Н И Е
Сайт не распространяет и не хранит электронные версии произведений, а лишь бесплатно и без коммерческой выгоды (не требуя взамен платы,
SMS и т.д.) предоставляет доступ к создаваемому пользователями каталогу ссылок на торрент-файлы, которые содержат только списки хеш-сумм.
Убедительная просьба с жалобами обращаться напрямую к пользователю, разместившему торрент файл.

Вверх