Loading...
Error

Остаюсь с вами (Игорь Вознесенский.) [1981 г., Киноповесть, DVDRip]

Статистика раздачи
Размер:  744 MB   |    Зарегистрирован:  3 года 8 месяцев   |    Скачан:  2 раза

Полного источника не было: 2 года

Сидов:  0  |  0 KB/s  ]   Личеров:  0  |  0 KB/s  ]

* - сиды/пиры с внешних источников

   
 
Автор Сообщение

матроскин Пол:Муж

31-Мар-2013 10:16

Остаюсь с вами


Год выпуска: 1981
Жанр: Киноповесть
Страна: СССР
Режиссер: Игорь Вознесенский.
В ролях: Анатолий Грачев, Андрей Ростоцкий, Дима Гайдар, Леонид Марков, Николай Гринько, Дима Замулин, Анна Викторова, Дима Миллер, Оля Вознесенская, Оля Плетюшкина, Кирилл Горлов, Арнис Лицитис, Елена Валаева, Юрий Саранцев, Юрий Мартынов, Николай Сморчков, Николай Смирнов, Василий Долбитиков, Игорь Пушкарев, Николай Мерзликин, Юрий Чекулаев, Татьяна Микрикова, Вера Петрова, Юрий Сорокин, Андрей Леонов.
Сюжет фильма:
Фильм рассказывает о последних годах жизни писателя Аркадия Гайдара. Писатель работает над новыми книгами, в воспоминаниях возвращаясь к концу Гражданской войны, когда его комиссовали из армии. Завершается фильм гибелью Гайдара во время Великой Отечественной войны.
В фильм вошли эпизоды из его жизни перед началом войны, когда Гайдар заканчивал работу над книгой «Комендант снежной крепости», а также рассказ о его работе на фронте в качестве корреспондента "Комсомольской правды" и пребывании в партизанском отряде...
Киноповесть посвященная 60-летию Всесоюзной пионерской организации имени Владимира Ильича Ленина.


Качество видео: DVDRip

Продолжительность: 01:03:52
Формат: avi
Видео: XviD, 720x320, 1506 kbps
Аудио: русский, оригинал, MP3 2.0, 112 kbps

Код:

General
Complete name                    : C:\Users\Security\Videos\Мамонов\Ostaus.s.vami.1981..avi
Format                           : AVI
Format/Info                      : Audio Video Interleave
File size                        : 744 MiB
Duration                         : 1h 3mn
Overall bit rate                 : 1 629 Kbps
Movie name                       : Остаюсь с вами (1981)
Copyright                        : HeDgEhOt® for FenixClub

Video
ID                               : 0
Format                           : MPEG-4 Visual
Format profile                   : Streaming Video@L1
Format settings, BVOP            : Yes
Format settings, QPel            : No
Format settings, GMC             : No warppoints
Format settings, Matrix          : Custom
Codec ID                         : XVID
Codec ID/Hint                    : XviD
Duration                         : 1h 3mn
Bit rate                         : 1 507 Kbps
Width                            : 720 pixels
Height                           : 320 pixels
Display aspect ratio             : 2.25
Frame rate                       : 25.000 fps
Resolution                       : 24 bits
Colorimetry                      : 4:2:0
Scan type                        : Progressive
Bits/(Pixel*Frame)               : 0.262
Stream size                      : 689 MiB (93%)
Writing library                  : XviD 1.2.1 (UTC 2008-12-04)

Audio
ID                               : 1
Format                           : MPEG Audio
Format version                   : Version 1
Format profile                   : Layer 3
Codec ID                         : 55
Codec ID/Hint                    : MP3
Duration                         : 1h 3mn
Bit rate mode                    : Constant
Bit rate                         : 112 Kbps
Channel(s)                       : 2 channels
Sampling rate                    : 48.0 KHz
Resolution                       : 16 bits
Stream size                      : 51.2 MiB (7%)
Alignment                        : Split accross interleaves
Interleave, duration             : 40 ms (1.00 video frame)
Interleave, preload duration     : 500 ms
Language                         : Русский

picpicpicpicpicpic
Для увеличения картинки щелкните мышкой по превью

Этот торрент недоступен для скачивания без регистрации, однако доступен по публичной magnet-ссылке (источники с публичных трекеров). Перед использованием ссылки прочтите, пожалуйста Пользовательское соглашение, а также как можно дольше оставайтесь на раздаче! Для того, чтобы скачать сам торрент-файл (который видит больше источников), а также для того, чтобы поблагодарить релизера, вам необходимо зарегистрироваться. Если регистрироваться лень - вы можете также попробовать скачать релиз по нашим партнерским ссылкам ниже.

[underverse.su].t25617.torrent
Трекер: Зарегистрирован   [ 31.03.2013 10:16 ]  

Статус: проверено (by Чертёнок at 31.03.2013 11:09)
Поблагодарили: 1 человек
Тип торрента: публичный - доступные источники с открытых трекеров: 
Размер: 744 MB (занимает 0,17 DVDR, для записи нужно 1 болванка DVDR/RW)
 
 

матроскин Пол:Муж

31-Мар-2013 10:20

Приятного всем просмотра!!!!

.

Яндекс.Метрика powered by Sphinx


В Н И М А Н И Е
Сайт не распространяет и не хранит электронные версии произведений, а лишь бесплатно и без коммерческой выгоды (не требуя взамен платы,
SMS и т.д.) предоставляет доступ к создаваемому пользователями каталогу ссылок на торрент-файлы, которые содержат только списки хеш-сумм.
Убедительная просьба с жалобами обращаться напрямую к пользователю, разместившему торрент файл.

Вверх