Loading...
Error

Это было в разведке (Лев Мирский) [1968 г., военный, драма, DVDRip]

Статистика раздачи
Размер:  1,36 GB   |    Зарегистрирован:  3 года 8 месяцев   |    Скачан:  8 раз

Полного источника не было: 2 часа 2 минуты

Сидов:  0  |  0 KB/s  ]   Личеров:  0  |  0 KB/s  ]

* - сиды/пиры с внешних источников

   
 
Автор Сообщение

матроскин Пол:Муж

31-Мар-2013 09:51

Это было в разведке


Год выпуска: 1968
Жанр: военный, драма
Страна: СССР
Режиссер: Лев Мирский
В ролях: Виктор Жуков, Валерий Малышев, Владимир Грамматиков, Виктор Филиппов, Наталья Величко, Сергей Пожарский, Виктор Задубровский, Валерий Кузьмин, Виктор Шахов, Шавкат Газиев, Леонид Реутов, Станислав Симонов, Евгений Евстигнеев, Николай Ф.Волков
Сюжет фильма:
Фильм посвящен рассказу о героических подвигах одного из храбрых разведчиков Великой Отечественной войны. Отличительная особенность этой киноистории — то, что его главному герою… едва исполнилось двенадцать лет. Фильм основан на реальных событиях.


Качество видео: DVDRip

Продолжительность: 01:28:17
Формат: avi
Видео: XviD, 688x352, 2007 kbps
Аудио: русский, оригинал, AC3 2.0, 192 kbps

Код:

General
Complete name                    : C:\Users\Security\Videos\Мамонов\Это было в разведке 1968.avi
Format                           : AVI
Format/Info                      : Audio Video Interleave
File size                        : 1.36 GiB
Duration                         : 1h 28mn
Overall bit rate                 : 2 209 Kbps
Writing application              : FairUse Wizard - http://fairusewizard.com
Writing library                  : The best and REALLY easy backup tool

Video
ID                               : 0
Format                           : MPEG-4 Visual
Format profile                   : Streaming Video@L1
Format settings, BVOP            : Yes
Format settings, QPel            : No
Format settings, GMC             : No warppoints
Format settings, Matrix          : Default (MPEG)
Muxing mode                      : Packed bitstream
Codec ID                         : XVID
Codec ID/Hint                    : XviD
Duration                         : 1h 28mn
Bit rate                         : 2 007 Kbps
Width                            : 688 pixels
Height                           : 352 pixels
Display aspect ratio             : 1.955
Frame rate                       : 25.000 fps
Resolution                       : 24 bits
Colorimetry                      : 4:2:0
Scan type                        : Progressive
Bits/(Pixel*Frame)               : 0.332
Stream size                      : 1.24 GiB (91%)
Writing library                  : XviD 1.2.0.dev47 (UTC 2006-11-01)

Audio
ID                               : 1
Format                           : AC-3
Format/Info                      : Audio Coding 3
Codec ID                         : 2000
Duration                         : 1h 28mn
Bit rate mode                    : Constant
Bit rate                         : 192 Kbps
Channel(s)                       : 2 channels
Channel positions                : L R
Sampling rate                    : 48.0 KHz
Stream size                      : 121 MiB (9%)
Alignment                        : Split accross interleaves
Interleave, duration             : 40 ms (1.00 video frame)
Interleave, preload duration     : 500 ms

picpicpicpicpicpic
Для увеличения картинки щелкните мышкой по превью

Этот торрент недоступен для скачивания без регистрации, однако доступен по публичной magnet-ссылке (источники с публичных трекеров). Перед использованием ссылки прочтите, пожалуйста Пользовательское соглашение, а также как можно дольше оставайтесь на раздаче! Для того, чтобы скачать сам торрент-файл (который видит больше источников), а также для того, чтобы поблагодарить релизера, вам необходимо зарегистрироваться. Если регистрироваться лень - вы можете также попробовать скачать релиз по нашим партнерским ссылкам ниже.

[underverse.su].t25615.torrent
Трекер: Зарегистрирован   [ 31.03.2013 09:51 ]  

Статус: проверено (by Чертёнок at 31.03.2013 11:11)
Поблагодарили: 1 человек
Тип торрента: публичный - доступные источники с открытых трекеров: 
Размер: 1,36 GB (занимает 0,31 DVDR, для записи нужно 1 болванка DVDR/RW)
 
 

матроскин Пол:Муж

31-Мар-2013 10:28

Кто не смотрел, советую посмотреть замечательный фильм о героях которые были в Советское время!


Разгулялася гроза
На крутых, на горных склонах,
Ночью выпал из гнезда
Соколенок, соколенок.

Зря его искала мать:
Голос был и слаб, и тонок —
Не умел еще летать
Соколенок, соколенок.

Я домой его принес,
Свил гнездо в кустах зеленых.
Оперился и подрос
Соколенок, соколенок.

Он подрос, и осмелел,
И с мечтою затаенной
В небо синее смотрел,
Соколенок, соколенок.

И взлетел он по весне,
И обратно с небосклона, —
Прилетал всегда ко мне
Соколенок, соколенок.

Вот опять летит он ввысь
В тучах, солнцем озаренных.
Обязательно вернись,
Соколенок, соколенок!

матроскин Пол:Муж

05-Май-2013 20:36

ПОЗДРАВЛЯЮ ВСЕХ С НАСТУПАЮЩИМ ПРАЗДНИКОМ С ДНЕМ ПОБЕДЫ!!!


Яндекс.Метрика powered by Sphinx


В Н И М А Н И Е
Сайт не распространяет и не хранит электронные версии произведений, а лишь бесплатно и без коммерческой выгоды (не требуя взамен платы,
SMS и т.д.) предоставляет доступ к создаваемому пользователями каталогу ссылок на торрент-файлы, которые содержат только списки хеш-сумм.
Убедительная просьба с жалобами обращаться напрямую к пользователю, разместившему торрент файл.

Вверх