Loading...
Error

Сентиментальное путешествие на картошку (Дмитрий Долинин) [1986 г., мелодрама, TVRip]

Статистика раздачи
Размер:  1,09 GB   |    Зарегистрирован:  3 года 8 месяцев   |    Скачан:  4 раза

Полного источника не было: 2 года 1 месяц

Сидов:  0  |  0 KB/s  ]   Личеров:  0  |  0 KB/s  ]

* - сиды/пиры с внешних источников

   
 
Автор Сообщение

матроскин Пол:Муж

31-Мар-2013 09:23

Сентиментальное путешествие на картошку


Год выпуска: 1986
Жанр: мелодрама
Страна: СССР ,
Режиссер: Дмитрий Долинин
В ролях: Филипп Янковский, Анжелика Неволина, Петр Семак, Андрей Гусев, Николай Устинов, Василий Арканов, Евгения Баркан, Фёдор Валиков
Сюжет фильма:
Городской студент ВУЗа с группой отправляются в сельскую область на "картошку". Здесь он встречает первую любовь, и познает трудности человеческих отношений.


Качество видео: TVRip

Продолжительность: 01:17:14
Формат: avi
Видео: DivX 5, 608x272, 1921 kbps
Аудио: русский, оригинал, MP3 1, 96 kbps

Код:

General
Complete name                    : C:\Users\Security\Videos\Мамонов\картошка\sentimentalnoe.puteshestvie.na.kartoshku.avi
Format                           : AVI
Format/Info                      : Audio Video Interleave
File size                        : 1.09 GiB
Duration                         : 1h 17mn
Overall bit rate                 : 2 027 Kbps
Movie name                       : Sentimental'noe puteshestvie na kartoshku
Director                         : Lenfil'm
Recorded date                    : 1986
Writing application              : VirtualDubMod 1.5.10.2 (build 2542/release)
Writing library                  : VirtualDubMod build 2542/release
Comment                          : TVrip by Turtle / DivX Pro 5.0.3 @ 0,466 bpp / Lame MP3 44,1 kHz Mono @ 96 kbps

Video
ID                               : 0
Format                           : MPEG-4 Visual
Format settings, BVOP            : Yes
Format settings, QPel            : No
Format settings, GMC             : No warppoints
Format settings, Matrix          : Default (H.263)
Muxing mode                      : Packed bitstream
Codec ID                         : DX50
Codec ID/Hint                    : DivX 5
Duration                         : 1h 17mn
Bit rate                         : 1 922 Kbps
Width                            : 608 pixels
Height                           : 272 pixels
Display aspect ratio             : 2.25
Frame rate                       : 25.000 fps
Resolution                       : 24 bits
Colorimetry                      : 4:2:0
Scan type                        : Progressive
Bits/(Pixel*Frame)               : 0.465
Stream size                      : 1.04 GiB (95%)
Writing library                  : DivX 5.0.3 (UTC 2003-01-24)

Audio
ID                               : 1
Format                           : MPEG Audio
Format version                   : Version 1
Format profile                   : Layer 3
Codec ID                         : 55
Codec ID/Hint                    : MP3
Duration                         : 1h 17mn
Bit rate mode                    : Constant
Bit rate                         : 96.0 Kbps
Channel(s)                       : 1 channel
Sampling rate                    : 44.1 KHz
Resolution                       : 16 bits
Stream size                      : 53.0 MiB (5%)
Alignment                        : Split accross interleaves
Interleave, duration             : 40 ms (1.00 video frame)
Interleave, preload duration     : 500 ms

picpicpicpicpicpic
Для увеличения картинки щелкните мышкой по превью

Этот торрент недоступен для скачивания без регистрации, однако доступен по публичной magnet-ссылке (источники с публичных трекеров). Перед использованием ссылки прочтите, пожалуйста Пользовательское соглашение, а также как можно дольше оставайтесь на раздаче! Для того, чтобы скачать сам торрент-файл (который видит больше источников), а также для того, чтобы поблагодарить релизера, вам необходимо зарегистрироваться. Если регистрироваться лень - вы можете также попробовать скачать релиз по нашим партнерским ссылкам ниже.

[underverse.su].t25612.torrent
Трекер: Зарегистрирован   [ 31.03.2013 09:23 ]  

Статус: проверено (by Чертёнок at 31.03.2013 11:14)
Поблагодарили: пока никто не поблагодарил...
Тип торрента: публичный - доступные источники с открытых трекеров: 
Размер: 1,09 GB (занимает 0,25 DVDR, для записи нужно 1 болванка DVDR/RW)
 
 

матроскин Пол:Муж

31-Мар-2013 09:28

Качайте и смотрите интересное кино!!!


Яндекс.Метрика powered by Sphinx


В Н И М А Н И Е
Сайт не распространяет и не хранит электронные версии произведений, а лишь бесплатно и без коммерческой выгоды (не требуя взамен платы,
SMS и т.д.) предоставляет доступ к создаваемому пользователями каталогу ссылок на торрент-файлы, которые содержат только списки хеш-сумм.
Убедительная просьба с жалобами обращаться напрямую к пользователю, разместившему торрент файл.

Вверх