Loading...
Error

Был настоящим трубачом (Константин Бромберг ) [1973 г., драма, SatRip]

Статистика раздачи
Размер:  922 MB   |    Зарегистрирован:  3 года 8 месяцев   |    Скачан:  4 раза

Полного источника не было: 1 день 7 часов

Сидов:  0  |  0 KB/s  ]   Личеров:  0  |  0 KB/s  ]

* - сиды/пиры с внешних источников

   
 
Автор Сообщение

матроскин Пол:Муж

31-Мар-2013 08:53

Был настоящим трубачом


Год выпуска: 1973
Жанр: драма
Страна: СССР
Режиссер: Константин Бромберг
В ролях: Эвальдас Микалюнас, Валентин Никулин, Олег Корчиков, Алексей Кривченя, Олег Чайка, Андрей Вертоградов,...
Сюжет фильма:
О жизни девятилетнего артиста-агитатора Коти Мгеброва-Чекана, погибшего в 1922 году от руки контрреволюционера и похороненного в Петрограде на Марсовом поле рядом с героями революции.


Качество видео: SatRip

Продолжительность: 01:06:32
Формат: avi
Видео: XviD, 688x512, 1798 kbps
Аудио: русский, оригинал, MP3 2.0, 128 kbps

Код:

General
Complete name                    : C:\Users\Security\Videos\Мамонов\Bil nastoyashim trubachem.avi
Format                           : AVI
Format/Info                      : Audio Video Interleave
File size                        : 922 MiB
Duration                         : 1h 6mn
Overall bit rate                 : 1 937 Kbps
Director                         : SATrip by Animat
Writing application              : VirtualDubMod 1.5.10.2 (build 2540/release)
Writing library                  : VirtualDubMod build 2540/release

Video
ID                               : 0
Format                           : MPEG-4 Visual
Format profile                   : Streaming Video@L1
Format settings, BVOP            : Yes
Format settings, QPel            : No
Format settings, GMC             : No warppoints
Format settings, Matrix          : Default (MPEG)
Muxing mode                      : Packed bitstream
Codec ID                         : XVID
Codec ID/Hint                    : XviD
Duration                         : 1h 6mn
Bit rate                         : 1 799 Kbps
Width                            : 688 pixels
Height                           : 512 pixels
Display aspect ratio             : 4/3
Frame rate                       : 25.000 fps
Resolution                       : 24 bits
Colorimetry                      : 4:2:0
Scan type                        : Progressive
Bits/(Pixel*Frame)               : 0.204
Stream size                      : 856 MiB (93%)
Writing library                  : XviD 1.1.2 (UTC 2006-11-01)

Audio
ID                               : 1
Format                           : MPEG Audio
Format version                   : Version 1
Format profile                   : Layer 3
Codec ID                         : 55
Codec ID/Hint                    : MP3
Duration                         : 1h 6mn
Bit rate mode                    : Constant
Bit rate                         : 128 Kbps
Channel(s)                       : 2 channels
Sampling rate                    : 48.0 KHz
Resolution                       : 16 bits
Stream size                      : 60.9 MiB (7%)
Alignment                        : Aligned on interleaves
Interleave, duration             : 40 ms (1.00 video frame)
Interleave, preload duration     : 504 ms

picpicpicpicpicpic
Для увеличения картинки щелкните мышкой по превью

Этот торрент недоступен для скачивания без регистрации, однако доступен по публичной magnet-ссылке (источники с публичных трекеров). Перед использованием ссылки прочтите, пожалуйста Пользовательское соглашение, а также как можно дольше оставайтесь на раздаче! Для того, чтобы скачать сам торрент-файл (который видит больше источников), а также для того, чтобы поблагодарить релизера, вам необходимо зарегистрироваться. Если регистрироваться лень - вы можете также попробовать скачать релиз по нашим партнерским ссылкам ниже.

[underverse.su].t25609.torrent
Трекер: Зарегистрирован   [ 31.03.2013 08:53 ]  

Статус: проверено (by Чертёнок at 31.03.2013 11:20)
Поблагодарили: 2 человека
Тип торрента: публичный - доступные источники с открытых трекеров: 
Размер: 922 MB (занимает 0,21 DVDR, для записи нужно 1 болванка DVDR/RW)
 
 

матроскин Пол:Муж

31-Мар-2013 09:01

Всем приятного просмотра!!!


Яндекс.Метрика powered by Sphinx


В Н И М А Н И Е
Сайт не распространяет и не хранит электронные версии произведений, а лишь бесплатно и без коммерческой выгоды (не требуя взамен платы,
SMS и т.д.) предоставляет доступ к создаваемому пользователями каталогу ссылок на торрент-файлы, которые содержат только списки хеш-сумм.
Убедительная просьба с жалобами обращаться напрямую к пользователю, разместившему торрент файл.

Вверх