Loading...
Error

Семья Ульяновых (Валентин Невзоров) [1957 г., биография, киноповесть, DVDRip]

Статистика раздачи
Размер:  1,13 GB   |    Зарегистрирован:  3 года 8 месяцев   |    Скачан:  6 раз
Сидов:  1  |  0 KB/s  ]   Личеров:  0  |  0 KB/s  ]

* - сиды/пиры с внешних источников

   
 
Автор Сообщение

матроскин Пол:Муж

31-Мар-2013 08:31

Семья Ульяновых


Год выпуска: 1957
Жанр: биография, киноповесть
Страна: СССР
Режиссер: Валентин Невзоров
В ролях: Софья Гиацинтова, Владимир Коровин, Феликс Яворский, Любовь Соколова, Нина Крачковская, Боря Бурляев, Ира Калягина, Афанасий Кочетков, Елена Кузьмина, Владимир Гуляев, Иван Кузнецов, Николай Прокопович, Николай Свободин, Владимир Муравьев, Александр Шатов
Сюжет фильма:
Биографическая киноповесть по пьесе И. Попова «Семья». О юношеских годах В.И. Ленина, о его становлении как политика, о выводах, сделанных на примере деятельности казненного старшего брата. О матери, борющейся за смягчение приговора сыну Александру и не пожелавшей уговорить его выдать своих товарищей.


Качество видео: DVDRip

Продолжительность: 01:18:13
Формат: avi
Видео: XviD, 720x552, 1999 kbps
Аудио: русский, оригинал, MP3 1, 64 kbps

Код:

General
Complete name                    : C:\Users\Security\Videos\Мамонов\Семья Ульяновых DVDRip.avi
Format                           : AVI
Format/Info                      : Audio Video Interleave
File size                        : 1.13 GiB
Duration                         : 1h 18mn
Overall bit rate                 : 2 073 Kbps
Writing application              : VirtualDubMod 1.5.10.2 (build 2540/release)
Writing library                  : VirtualDub build 32817/release

Video
ID                               : 0
Format                           : MPEG-4 Visual
Format profile                   : Streaming Video@L1
Format settings, BVOP            : Yes
Format settings, QPel            : No
Format settings, GMC             : No warppoints
Format settings, Matrix          : Default (H.263)
Codec ID                         : XVID
Codec ID/Hint                    : XviD
Duration                         : 1h 18mn
Bit rate                         : 2 000 Kbps
Width                            : 720 pixels
Height                           : 552 pixels
Display aspect ratio             : 4/3
Frame rate                       : 25.000 fps
Resolution                       : 24 bits
Colorimetry                      : 4:2:0
Scan type                        : Progressive
Bits/(Pixel*Frame)               : 0.201
Stream size                      : 1.09 GiB (96%)
Writing library                  : XviD 1.2.1 (UTC 2008-12-04)

Audio
ID                               : 1
Format                           : MPEG Audio
Format version                   : Version 1
Format profile                   : Layer 3
Codec ID                         : 55
Codec ID/Hint                    : MP3
Duration                         : 1h 18mn
Bit rate mode                    : Constant
Bit rate                         : 64.0 Kbps
Channel(s)                       : 1 channel
Sampling rate                    : 48.0 KHz
Resolution                       : 16 bits
Stream size                      : 35.8 MiB (3%)
Alignment                        : Split accross interleaves
Interleave, duration             : 40 ms (1.00 video frame)
Interleave, preload duration     : 500 ms

picpicpicpicpicpic
Для увеличения картинки щелкните мышкой по превью

Этот торрент недоступен для скачивания без регистрации, однако доступен по публичной magnet-ссылке (источники с публичных трекеров). Перед использованием ссылки прочтите, пожалуйста Пользовательское соглашение, а также как можно дольше оставайтесь на раздаче! Для того, чтобы скачать сам торрент-файл (который видит больше источников), а также для того, чтобы поблагодарить релизера, вам необходимо зарегистрироваться. Если регистрироваться лень - вы можете также попробовать скачать релиз по нашим партнерским ссылкам ниже.

[underverse.su].t25606.torrent
Трекер: Зарегистрирован   [ 31.03.2013 08:31 ]  

Статус: проверено (by Чертёнок at 31.03.2013 11:25)
Поблагодарили: 1 человек
Тип торрента: публичный - доступные источники с открытых трекеров: 
Размер: 1,13 GB (занимает 0,26 DVDR, для записи нужно 1 болванка DVDR/RW)
 
 

матроскин Пол:Муж

31-Мар-2013 08:34

Всем приятного просмотра!!!


Яндекс.Метрика powered by Sphinx


В Н И М А Н И Е
Сайт не распространяет и не хранит электронные версии произведений, а лишь бесплатно и без коммерческой выгоды (не требуя взамен платы,
SMS и т.д.) предоставляет доступ к создаваемому пользователями каталогу ссылок на торрент-файлы, которые содержат только списки хеш-сумм.
Убедительная просьба с жалобами обращаться напрямую к пользователю, разместившему торрент файл.

Вверх