Loading...
Error

Аттестат зрелости (Татьяна Лукашевич) [1954 г., киноповесть, DVDRip]

Статистика раздачи
Размер:  1,37 GB   |    Зарегистрирован:  3 года 8 месяцев   |    Скачан:  0 раз

Полного источника не было: 2 года 3 месяца

Сидов:  0  |  0 KB/s  ]   Личеров:  0  |  0 KB/s  ]

* - сиды/пиры с внешних источников

   
 
Автор Сообщение

матроскин Пол:Муж

31-Мар-2013 08:00

Аттестат зрелости


Год выпуска: 1954
Жанр: киноповесть
Страна: СССР
Режиссер: Татьяна Лукашевич
В ролях: : Василий Лановой, Вадим Грачев, Татьяна Ленникова, Владимир Андреев, Лев Борисов, Владимир Дорофеев, Владимир Емельянов, Владимир Земляникин, Антонина Богданова, Роза Макагонова, Татьяна Пельтцер,...
Сюжет фильма:
По одноименной повести Лии Гераскиной. Одаренный, но избалованный и эгоистичный Валентин спровоцировал в школе конфликтную ситуацию. Но друзья не дали парню волю: герой был разоблачен и наказан.


Качество видео: DVDRip

Продолжительность: 01:29:25
Формат: avi
Видео: DivX 5, 704x528, 1986 kbps
Аудио: русский, оригинал, AC3 2.0, 192 kbps

Код:

General
Complete name                    : C:\Users\Security\Desktop\Аттестат зрелости DVDRip.avi
Format                           : AVI
Format/Info                      : Audio Video Interleave
File size                        : 1.37 GiB
Duration                         : 1h 29mn
Overall bit rate                 : 2 188 Kbps
Writing application              : VirtualDubModRus 1.5.10.2 (build 2542/release)
Writing library                  : VirtualDubMod build 2542/release

Video
ID                               : 0
Format                           : MPEG-4 Visual
Format settings, BVOP            : Yes
Format settings, QPel            : No
Format settings, GMC             : No warppoints
Format settings, Matrix          : Default (H.263)
Muxing mode                      : Packed bitstream
Codec ID                         : DX50
Codec ID/Hint                    : DivX 5
Duration                         : 1h 29mn
Bit rate                         : 1 986 Kbps
Width                            : 704 pixels
Height                           : 528 pixels
Display aspect ratio             : 4/3
Frame rate                       : 25.000 fps
Resolution                       : 24 bits
Colorimetry                      : 4:2:0
Scan type                        : Progressive
Bits/(Pixel*Frame)               : 0.214
Stream size                      : 1.24 GiB (91%)
Writing library                  : DivX 6.8.3 (UTC 2008-06-07)

Audio
ID                               : 1
Format                           : AC-3
Format/Info                      : Audio Coding 3
Codec ID                         : 2000
Duration                         : 1h 29mn
Bit rate mode                    : Constant
Bit rate                         : 192 Kbps
Channel(s)                       : 2 channels
Channel positions                : L R
Sampling rate                    : 48.0 KHz
Stream size                      : 123 MiB (9%)
Alignment                        : Aligned on interleaves
Interleave, duration             : 40 ms (1.00 video frame)
Interleave, preload duration     : 512 ms

picpicpicpicpicpic
Для увеличения картинки щелкните мышкой по превью

Этот торрент недоступен для скачивания без регистрации, однако доступен по публичной magnet-ссылке (источники с публичных трекеров). Перед использованием ссылки прочтите, пожалуйста Пользовательское соглашение, а также как можно дольше оставайтесь на раздаче! Для того, чтобы скачать сам торрент-файл (который видит больше источников), а также для того, чтобы поблагодарить релизера, вам необходимо зарегистрироваться. Если регистрироваться лень - вы можете также попробовать скачать релиз по нашим партнерским ссылкам ниже.

[underverse.su].t25605.torrent
Трекер: Зарегистрирован   [ 31.03.2013 08:00 ]  

Статус: проверено (by Паукан at 31.03.2013 08:07)
Поблагодарили: 2 человека
Тип торрента: публичный - доступные источники с открытых трекеров: 
Размер: 1,37 GB (занимает 0,31 DVDR, для записи нужно 1 болванка DVDR/RW)
 
 


Последний раз редактировалось: матроскин (31.03.2013 08:08), всего редактировалось 3 раз(а)

матроскин Пол:Муж

31-Мар-2013 08:02

Всем приятного просмотра!

.

Яндекс.Метрика powered by Sphinx


В Н И М А Н И Е
Сайт не распространяет и не хранит электронные версии произведений, а лишь бесплатно и без коммерческой выгоды (не требуя взамен платы,
SMS и т.д.) предоставляет доступ к создаваемому пользователями каталогу ссылок на торрент-файлы, которые содержат только списки хеш-сумм.
Убедительная просьба с жалобами обращаться напрямую к пользователю, разместившему торрент файл.

Вверх