Loading...
Error

4:0 в пользу Танечки (Радомир Василевский) [1982 г., семейный, DVDRip]

Статистика раздачи
Размер:  1,04 GB   |    Зарегистрирован:  4 года 3 месяца   |    Скачан:  6 раз

Полного источника не было: 2 года 4 месяца

Сидов:  0  |  0 KB/s  ]   Личеров:  0  |  0 KB/s  ]

* - сиды/пиры с внешних источников

   
 
Автор Сообщение

матроскин Пол:Муж

31-Мар-2013 07:35

4: 0 в пользу Танечки


Год выпуска: 1982
Жанр: семейный
Страна: СССР
Режиссер: Радомир Василевский
В ролях: Наталья Флоренская, Анатолий Обухов, Наталья Лисовская, Александр Варакин, Мария Корноухова, Сергей Писунов, Дмитрий Волков ст., Дмитрий Копп, Алла Блохина, Павел Степанов, Вацлав Дворжецкий, Андрей Мягков, Светлана Немоляева, Ела Санько, Евгения Ханаева, Никита Мейтин, Дарья Жаворонкова, Екатерина Кмит, Евгений Лившиц, Юрий Васильев (II), Аркадий Маркин, Герман Качин, Надежда Корноухова, Всеволод Лисовский
Сюжет фильма:
В школу приходит молодая учительница Татьяна Ивановна. Пятый «Б» назначает неопытной классной даме испытательный срок и берет шефство в свои руки. Но для нее все оканчивается благополучно, Татьяна Ивановна одерживает неоспоримую победу со счетом 4:0.


Качество видео: DVDRip

Продолжительность: 01:24:16
Формат: avi
Видео: DivX 5, 720x400, 1500 kbps
Аудио: русский, оригинал, AC3 2.0, 256 kbps

Код:

General
Complete name                    : C:\Users\Security\Desktop\4_0 в пользу Танечки DVDRip 1.03 GB.avi
Format                           : AVI
Format/Info                      : Audio Video Interleave
File size                        : 1.04 GiB
Duration                         : 1h 24mn
Overall bit rate                 : 1 766 Kbps
Writing library                  : VirtualDub build 27021/release

Video
ID                               : 0
Format                           : MPEG-4 Visual
Format settings, BVOP            : Yes
Format settings, QPel            : No
Format settings, GMC             : No warppoints
Format settings, Matrix          : Default (H.263)
Muxing mode                      : Packed bitstream
Codec ID                         : DX50
Codec ID/Hint                    : DivX 5
Duration                         : 1h 24mn
Bit rate                         : 1 500 Kbps
Width                            : 720 pixels
Height                           : 400 pixels
Display aspect ratio             : 16/9
Frame rate                       : 25.000 fps
Resolution                       : 24 bits
Colorimetry                      : 4:2:0
Scan type                        : Progressive
Bits/(Pixel*Frame)               : 0.208
Stream size                      : 905 MiB (85%)
Writing library                  : DivX 5.2.1 Alpha (UTC 2004-09-08)

Audio
ID                               : 1
Format                           : AC-3
Format/Info                      : Audio Coding 3
Codec ID                         : 2000
Duration                         : 1h 24mn
Bit rate mode                    : Constant
Bit rate                         : 256 Kbps
Channel(s)                       : 2 channels
Channel positions                : L R
Sampling rate                    : 48.0 KHz
Stream size                      : 154 MiB (14%)
Alignment                        : Aligned on interleaves
Interleave, duration             : 40 ms (1.00 video frame)
Interleave, preload duration     : 512 ms

picpicpicpicpicpic
Для увеличения картинки щелкните мышкой по превью

Этот торрент недоступен для скачивания без регистрации, однако доступен по публичной magnet-ссылке (источники с публичных трекеров). Перед использованием ссылки прочтите, пожалуйста Пользовательское соглашение, а также как можно дольше оставайтесь на раздаче! Для того, чтобы скачать сам торрент-файл (который видит больше источников), а также для того, чтобы поблагодарить релизера, вам необходимо зарегистрироваться. Если регистрироваться лень - вы можете также попробовать скачать релиз по нашим партнерским ссылкам ниже.

[underverse.su].t25603.torrent
Трекер: Зарегистрирован   [ 31.03.2013 07:35 ]  

Статус: проверено (by Паукан at 31.03.2013 08:09)
Поблагодарили: 2 человека
Тип торрента: публичный - доступные источники с открытых трекеров: 
Размер: 1,04 GB (занимает 0,24 DVDR, для записи нужно 1 болванка DVDR/RW)
 
 


Последний раз редактировалось: матроскин (31.03.2013 08:08), всего редактировалось 1 раз

матроскин Пол:Муж

31-Мар-2013 07:38

Друзья! качайте и смотрите классное кино!

90ytr90 

31-Мар-2013 08:02

Это скрины такие.jpg или само кино в таком качестве (DivX Codec 5.2.1 alpha)?

матроскин Пол:Муж

31-Мар-2013 08:04

такое кино

90ytr90 

31-Мар-2013 08:14

Жаль

матроскин Пол:Муж

31-Мар-2013 08:16


Яндекс.Метрика powered by Sphinx


В Н И М А Н И Е
Сайт не распространяет и не хранит электронные версии произведений, а лишь бесплатно и без коммерческой выгоды (не требуя взамен платы,
SMS и т.д.) предоставляет доступ к создаваемому пользователями каталогу ссылок на торрент-файлы, которые содержат только списки хеш-сумм.
Убедительная просьба с жалобами обращаться напрямую к пользователю, разместившему торрент файл.

Вверх