Loading...
Error

Это случилось в милиции (Виллен Азаров ) [1963 г., мелодрама, DVDRip]

Статистика раздачи
Размер:  1,37 GB   |    Зарегистрирован:  3 года 8 месяцев   |    Скачан:  5 раз

Полного источника не было: 1 день 9 часов

Сидов:  0  |  0 KB/s  ]   Личеров:  0  |  0 KB/s  ]

* - сиды/пиры с внешних источников

   
 
Автор Сообщение

матроскин Пол:Муж

31-Мар-2013 06:46

Это случилось в милиции


Год выпуска: 1963
Жанр: мелодрама
Страна: СССР
Режиссер: Виллен Азаров
В ролях: Всеволод Санаев, Марк Бернес, Вячеслав Невинный, Александр Белявский, Олег Голубицкий, Зоя Фёдорова, Вова Дубинский, Валентина Владимирова, Сергей Курилов, Лидия Смирнова, Владимир Муравьёв, Сергей Никоненко,...
Сюжет фильма:
По мотивам повести Израиля Меттера «Сухарь». Киноповесть о блaгopoднoй дeятeльнocти работников милиции, зaнимaющиxcя розыском дeтeй и родителей, разлучённых Великой Отечественной вoйнoй. Герой фильма, ленинградский майор Сазонов, много труда и энергии отдаёт этой сложной работе по гражданским делам, требующей огромной любви к людям. Он проявляет недюжинную энергию в почти безуспешном поиске родителей солдата Федора Кравченко, трёхлетним ребёнком вывезенным из блокадного Ленинграда.


Качество видео: DVDRip

Продолжительность: 01:21:54
Формат: avi
Видео: DivX 5, 720x384, 2187 kbps
Аудио: русский, оригинал, AC3 2.0, 192 kbps

Код:

General
Complete name                    : C:\Users\Security\Desktop\Это случилось в милиции DVDRip 1.36 GB.avi
Format                           : AVI
Format/Info                      : Audio Video Interleave
File size                        : 1.37 GiB
Duration                         : 1h 21mn
Overall bit rate                 : 2 389 Kbps
Writing application              : VirtualDubModRus 1.5.10.2 (build 2542/release)
Writing library                  : VirtualDubMod build 2542/release

Video
ID                               : 0
Format                           : MPEG-4 Visual
Format settings, BVOP            : Yes
Format settings, QPel            : No
Format settings, GMC             : No warppoints
Format settings, Matrix          : Default (H.263)
Codec ID                         : DX50
Codec ID/Hint                    : DivX 5
Duration                         : 1h 21mn
Bit rate                         : 2 187 Kbps
Width                            : 720 pixels
Height                           : 384 pixels
Display aspect ratio             : 1.875
Frame rate                       : 25.000 fps
Resolution                       : 24 bits
Colorimetry                      : 4:2:0
Scan type                        : Progressive
Bits/(Pixel*Frame)               : 0.316
Stream size                      : 1.25 GiB (92%)
Writing library                  : DivX 6.8.3 (UTC 2008-06-07)

Audio
ID                               : 1
Format                           : AC-3
Format/Info                      : Audio Coding 3
Codec ID                         : 2000
Duration                         : 1h 21mn
Bit rate mode                    : Constant
Bit rate                         : 192 Kbps
Channel(s)                       : 2 channels
Channel positions                : L R
Sampling rate                    : 48.0 KHz
Stream size                      : 112 MiB (8%)
Alignment                        : Aligned on interleaves
Interleave, duration             : 40 ms (1.00 video frame)
Interleave, preload duration     : 512 ms

picpicpicpicpicpic
Для увеличения картинки щелкните мышкой по превью

Этот торрент недоступен для скачивания без регистрации, однако доступен по публичной magnet-ссылке (источники с публичных трекеров). Перед использованием ссылки прочтите, пожалуйста Пользовательское соглашение, а также как можно дольше оставайтесь на раздаче! Для того, чтобы скачать сам торрент-файл (который видит больше источников), а также для того, чтобы поблагодарить релизера, вам необходимо зарегистрироваться. Если регистрироваться лень - вы можете также попробовать скачать релиз по нашим партнерским ссылкам ниже.

[underverse.su].t25594.torrent
Трекер: Зарегистрирован   [ 31.03.2013 06:46 ]  

Статус: проверено (by Паукан at 31.03.2013 08:10)
Поблагодарили: 1 человек
Тип торрента: публичный - доступные источники с открытых трекеров: 
Размер: 1,37 GB (занимает 0,31 DVDR, для записи нужно 1 болванка DVDR/RW)
 
 


Последний раз редактировалось: матроскин (31.03.2013 08:09), всего редактировалось 1 раз

матроскин Пол:Муж

31-Мар-2013 07:11

Друзья! качайте и смотрите отличное Советское кино!

Помогу с проверкой релизов

90ytr90 

31-Мар-2013 08:35

:big_thanks:

alina180 Пол:Муж

06-Апр-2013 06:40

матроскин
Уважаемый автор станьте пожалуйста на раздачу х.ф." Это случилось в милиции" Заранее большое спасибо.

Яндекс.Метрика powered by Sphinx


В Н И М А Н И Е
Сайт не распространяет и не хранит электронные версии произведений, а лишь бесплатно и без коммерческой выгоды (не требуя взамен платы,
SMS и т.д.) предоставляет доступ к создаваемому пользователями каталогу ссылок на торрент-файлы, которые содержат только списки хеш-сумм.
Убедительная просьба с жалобами обращаться напрямую к пользователю, разместившему торрент файл.

Вверх