Loading...
Error

Ледников (Сыщик вне закона) / Серии: 1-16 (16) (Олег Фомин) [2013, детектив , SATRip]

Статистика раздачи
Размер:  7,83 GB   |    Зарегистрирован:  3 года 8 месяцев   |    Скачан:  16 раз

Полного источника не было: 1 год 2 месяца

Сидов:  0  |  0 KB/s  ]   Личеров:  0  |  0 KB/s  ]

* - сиды/пиры с внешних источников

   
 
Автор Сообщение

nemos Пол:Муж

29-Мар-2013 16:54

Ледников (Сыщик вне закона)


Год выпуска: 2013
Жанр: Детектив
Страна: Россия
Режиссер: Олег Фомин
В ролях: Андрей Чернышов, Станислав Дужников, Вячеслав Разбегаев, Елена Захарова, Наталья Рычкова, Михаил Тарабукин, Полина Сидихина, Анастасия Клюева, Павел Делонг, Юлия Ковалева, Евгения Волкова, Алексей Анищенко, Яна Давиденко, Сергей Беляев, Яна Поплавская, Олег Фомин, Александр Пороховщиков, Надежда Борисова, Мария Мина, Елена Ласкавая, Дмитрий Блажко, Роман Индык, Евгений Кушпель, Роман Чора, Александр Чевычелов, Игорь Поселенов, Данила Дунаев, Наталья Иохвидова, Любовь Виролайнен, Виталий Новиков (II), Александр Берлин (II), Федор Румянцев, Владимир Яковлев (II), Поля Полякова, Елена Коллегова
Сюжет фильма:
Главный герой сериала – в прошлом блестящий следователь прокуратуры. Пережив тяжелую психологическую травму, он работает криминальным журналистом и, вопреки желанию ни во что не ввязываться, раскрывает преступления быстрее своих старых знакомых из УВД.


Качество видео: SatRip

Продолжительность: 00:42:31серия
Формат: AVI
Видео: XviD, 720x400, 1 507 kbps
Аудио: русский, MP3 2.0, 192 kbps

Код:

F:\С underverse-3 Фильмы\Lednikov.2013.SATRip\Lednikow.(16.serija).2013.XviD.SATRip.avi
   General
      Complete name : F:\С underverse-3 Фильмы\Lednikov.2013.SATRip\Lednikow.(16.serija).2013.XviD.SATRip.avi
      Format : AVI
      Format/Info : Audio Video Interleave
      File size : 520 MiB
      Duration : 42mn 31s
      Overall bit rate : 1 709 Kbps
      Writing application : VirtualDubMod 1.5.10.2 (build 2540/release)
      Writing library : VirtualDubMod build 2540/release
   Video #0
      ID : 0
      Format : MPEG-4 Visual
      Format profile : Simple@L3
      Format settings, BVOP : No
      Format settings, QPel : No
      Format settings, GMC : No warppoints
      Format settings, Matrix : Default (H.263)
      Codec ID : XVID
      Codec ID/Hint : XviD
      Duration : 42mn 31s
      Bit rate : 1 507 Kbps
      Width : 720 pixels
      Height : 400 pixels
      Display aspect ratio : 16:9
      Frame rate : 25.000 fps
      Color space : YUV
      Chroma subsampling : 4:2:0
      Bit depth : 8 bits
      Scan type : Progressive
      Compression mode : Lossy
      Bits/(Pixel*Frame) : 0.209
      Stream size : 458 MiB (88%)
      Writing library : XviD 1.1.2 (UTC 2006-11-01)
   Audio #1
      ID : 1
      Format : MPEG Audio
      Format version : Version 1
      Format profile : Layer 3
      Mode : Joint stereo
      Mode extension : MS Stereo
      Codec ID : 55
      Codec ID/Hint : MP3
      Duration : 42mn 31s
      Bit rate mode : Constant
      Bit rate : 192 Kbps
      Channel(s) : 2 channels
      Sampling rate : 48.0 KHz
      Compression mode : Lossy
      Stream size : 58.4 MiB (11%)
      Alignment : Split accross interleaves
      Interleave, duration : 40 ms (1.00 video frame)
      Interleave, preload duration : 500 ms
      Writing library : LAME3.98
Семпл: http://multi-up.com/848176

picpicpicpicpicpicpicpicpicpicpicpicpicpic
Для увеличения картинки щелкните мышкой по превью
Сериал который был выложен и зарегистрирован более двух месяцев назад буду раздавать с 23.00ч до 06.00ч утра ( вина в этом немоя, а пользователей которые неподдерживают раздачу)

Этот торрент недоступен для скачивания без регистрации, однако доступен по публичной magnet-ссылке (источники с публичных трекеров). Перед использованием ссылки прочтите, пожалуйста Пользовательское соглашение, а также как можно дольше оставайтесь на раздаче! Для того, чтобы скачать сам торрент-файл (который видит больше источников), а также для того, чтобы поблагодарить релизера, вам необходимо зарегистрироваться. Если регистрироваться лень - вы можете также попробовать скачать релиз по нашим партнерским ссылкам ниже.

[underverse.su].t25897.torrent
Трекер: Зарегистрирован   [ 07.04.2013 06:40 ]  

Статус: проверено (by Чертёнок at 07.04.2013 07:05)
Поблагодарили: 2 человека
Тип торрента: публичный - доступные источники с открытых трекеров: 
Размер: 7,83 GB (занимает 1,79 DVDR, для записи нужно 2 болванки DVDR/RW)
 
 


Последний раз редактировалось: nemos (06.11.2014 11:29), всего редактировалось 2 раз(а)

nemos Пол:Муж

07-Апр-2013 06:41

торрент обновлен (16)

Яндекс.Метрика powered by Sphinx


В Н И М А Н И Е
Сайт не распространяет и не хранит электронные версии произведений, а лишь бесплатно и без коммерческой выгоды (не требуя взамен платы,
SMS и т.д.) предоставляет доступ к создаваемому пользователями каталогу ссылок на торрент-файлы, которые содержат только списки хеш-сумм.
Убедительная просьба с жалобами обращаться напрямую к пользователю, разместившему торрент файл.

Вверх