Loading...
Error

Лесник (Сезон 2) серии: 01 - 48(48) (Виктор Конисевич, Сергей Артимович) [2013, криминал, детектив , SATRip]

Статистика раздачи
Размер:  26 GB   |    Зарегистрирован:  3 года 7 месяцев   |    Скачан:  9 раз

Полного источника не было: 1 месяц 23 дня

Сидов:  0  |  0 KB/s  ]   Личеров:  0  |  0 KB/s  ]

* - сиды/пиры с внешних источников

   
 
Автор Сообщение

nemos Пол:Муж

28-Мар-2013 15:04

Лесник 2

Год выпуска: 2013
Жанр: Криминал, детектив
Страна: Россия
Режиссер: Виктор Конисевич, Сергей Артимович
В ролях: Виктор Конисевич, Сергей Артимович В ролях: Анна Большова, Александр Цуркан, Михаил Васьков, Олег Штефанко, Алексей Булдаков, Артём Федотов, Николай Зазуля, Олег Кленов, Евгений Пилипенко, Яна Львова, Тимофей Смирнов, Яна Кошкина, Марина Казанкова, Андрей Курилов, Руслан Спояло, Мария Матто, Рустам Махмутов, Павел Фартуков, Валерий Шумский, Максим Дромашко, Андрей Стоянов, Мария Викторова, Олег Карин, Владимир Ширяев, Елена Никитина, Евгений Морозов, Анастасия Королькова, Виктор Мютников, Ольга Приходько, Сергей Гришаков, Владимир Зайцев, Юлия Куварзина, Михаил Процько, Денис Сухомлинов, Владимир Тимофеев, Михаил Солодко, Николай Сморчков, Вера Пересветова, Анатолий Котенёв, Александр Пальчиков, Александр Никольский, Павел Черн
Лесник Олег Штефанко возвращается на НТВ! В таежной глуши, как и прежде, нет покоя: то чужие в лесу заплутают, то свои попадут в беду, то нагрянут лихие гости. Но с лесником - не забалуешь! Мужественный и невероятно обаятельный Леонид Зубов продолжает наводить порядок в суровой тайге!В новом сезоне ему придется столкнуться с множеством испытаний и проблем. Он раскроет не одно преступление, связанное с браконьерством, незаконным предпринимательством и криминалом, разоблачит преступников, называющих себя «лесными братьями»... И все это не без помощи старых-добрых друзей: охотника и геолога Глеба Сивого и старшего следователя прокуратуры Виктора Дронова.На личном фронте тоже не обойдется без перемен: как сложатся отношения с фельдшером Верой, чем обернется повышенный интерес к новенькой учительнице, что изменится в жизни лесника с приездом дочери Анны? Удастся ли хозяину тайги добиться семейного счастья и очистить лес от преступности, смотрите в новых сериях любимого сериала «Лесник» на НТВ!


Качество видео: SatRip

Продолжительность: 00:44:37серия
Формат: AVI
Видео: XviD, 720x400, 1646 kbps
Аудио: русский, MP3 2.0, 128 kbps

Код:

F:\С underverse-3 Фильмы\Лесник 2\Lesnik-2.(1.seriya).avi
   General
      Complete name : F:\С underverse-3 Фильмы\Лесник 2\Lesnik-2.(1.seriya).avi
      Format : AVI
      Format/Info : Audio Video Interleave
      File size : 607 MiB
      Duration : 44mn 37s
      Overall bit rate : 1 900 Kbps
   Video #0
      ID : 0
      Format : MPEG-4 Visual
      Format profile : Advanced Simple@L5
      Format settings, BVOP : 2
      Format settings, QPel : No
      Format settings, GMC : No warppoints
      Format settings, Matrix : Default (H.263)
      Muxing mode : Packed bitstream
      Codec ID : XVID
      Codec ID/Hint : XviD
      Duration : 44mn 37s
      Bit rate : 1 646 Kbps
      Width : 720 pixels
      Height : 400 pixels
      Display aspect ratio : 16:9
      Frame rate : 25.000 fps
      Color space : YUV
      Chroma subsampling : 4:2:0
      Bit depth : 8 bits
      Scan type : Progressive
      Compression mode : Lossy
      Bits/(Pixel*Frame) : 0.229
      Stream size : 525 MiB (87%)
      Writing library : XviD 64
   Audio #1
      ID : 1
      Format : MPEG Audio
      Format version : Version 1
      Format profile : Layer 3
      Mode : Joint stereo
      Mode extension : MS Stereo
      Codec ID : 55
      Codec ID/Hint : MP3
      Duration : 44mn 37s
      Bit rate mode : Constant
      Bit rate : 128 Kbps
      Channel(s) : 2 channels
      Sampling rate : 48.0 KHz
      Compression mode : Lossy
      Delay relative to video : 8ms
      Stream size : 40.9 MiB (7%)
      Alignment : Split accross interleaves
      Interleave, duration : 24 ms (0.60 video frame)
      Interleave, preload duration : 8 ms
Семпл: http://multi-up.com/847788

picpicpicpicpicpicpicpicpic
Для увеличения картинки щелкните мышкой по превью
Сериал который был выложен и зарегистрирован более двух месяцев назад буду раздавать с 23.00ч до 06.00ч утра ( вина в этом не моя, а пользователей которые не поддерживают раздачу)

Этот торрент недоступен для скачивания без регистрации, однако доступен по публичной magnet-ссылке (источники с публичных трекеров). Перед использованием ссылки прочтите, пожалуйста Пользовательское соглашение, а также как можно дольше оставайтесь на раздаче! Для того, чтобы скачать сам торрент-файл (который видит больше источников), а также для того, чтобы поблагодарить релизера, вам необходимо зарегистрироваться. Если регистрироваться лень - вы можете также попробовать скачать релиз по нашим партнерским ссылкам ниже.

[underverse.su].t26648.torrent
Трекер: Зарегистрирован   [ 26.04.2013 14:04 ]  

Статус: проверено (by Чертёнок at 26.04.2013 14:12)
Поблагодарили: пока никто не поблагодарил...
Тип торрента: публичный - доступные источники с открытых трекеров: 
Размер: 26 GB (занимает 5,94 DVDR, для записи нужно 6 болванок DVDR/RW)
 
 
Похожие темы
Форум Тема Автор Торрент Отв. Посл. сооб.
xUSSR сериалы Лесник (Сезон 1 / продолжение) серии: 15 - 48(48) (Виктор Конисевич, Сергей Артимович) [2012 г., Детектив, SatRip] nemos
3 | 1

1 | 1203

6

22.04.2015 05:24

xUSSR сериалы Лесник (Серии 01-14 из 14) (2011) сериал (Виктор Конисевич, Сергей Артимович) [2011 г., Детектив, боевик, SatRip] nemos
17 | 1

1 | 1231

13

22.04.2015 05:06



Последний раз редактировалось: nemos (06.11.2014 05:31), всего редактировалось 32 раз(а)

nemos Пол:Муж

29-Мар-2013 16:06

Торрент обновлен(48)

Яндекс.Метрика powered by Sphinx


В Н И М А Н И Е
Сайт не распространяет и не хранит электронные версии произведений, а лишь бесплатно и без коммерческой выгоды (не требуя взамен платы,
SMS и т.д.) предоставляет доступ к создаваемому пользователями каталогу ссылок на торрент-файлы, которые содержат только списки хеш-сумм.
Убедительная просьба с жалобами обращаться напрямую к пользователю, разместившему торрент файл.

Вверх