Loading...
Error

Мастер / The Master (Пол Томас Андерсон) [2012 г., драма, BDRip] Dub + AVO + Eng + Sub(Rus,Eng) HQ Underverse

Статистика раздачи
Размер:  2,16 GB   |    Зарегистрирован:  3 года 8 месяцев   |    Скачан:  60 раз

Полного источника не было: 1 день 15 часов

Сидов:  0  |  0 KB/s  ]   Личеров:  0  |  0 KB/s  ]

* - сиды/пиры с внешних источников

   
 
Автор Сообщение

HQ Underverse 

28-Мар-2013 12:04

Мастер / The Master


Год выпуска: 2012
Жанр: драма
Страна: США
Режиссер: Пол Томас Андерсон
В ролях: Хоакин Феникс, Филип Сеймур Хоффман, Эми Адамс, Лора Дерн, Джесси Племонс, Эмбир Чилдерс, Рами Малек, Мартин Д. Дью, Кевин Дж. О’Коннор, Патриция МакКормак
Сюжет фильма:
Демобилизованный моряк с загадочным прошлым не может найти места в послевоенной Америке. Он меняет одну работу за другой, пока случайно не знакомится с харизматичным создателем религиозного культа, известным писателем и философом. К удивлению приверженцев модного учения, их гуру делает агрессивного маргинала своим ближайшим помощником. По мере того как новая вера завоевывает поклонников, бывший бродяга начинает задаваться вопросами о том, во что он верит, и кем является его наставник на самом деле. Но некоторым тайнам лучше оставаться нераскрытыми…

  • Мировая премьера: 1 сентября 2012
  • Российская премьера: 14 февраля 2013, «Вольга»

|
Качество видео: BDRip

Продолжительность: 02:17:30
Формат: avi
Видео: XviD, 720x384, 1792 kbps
Аудио #1: русский, дублированный [лицензия], AC3 5.1, 448 kbps
Аудио #2: русский, одноголосый закадровый [Ю. Сербин], AC3 5.1, 448 kbps (отдельным файлом: здесь)
Аудио #3: английский, оригинал, AC3 5.1, 448 kbps (отдельным файлом: здесь)
Субтитры #1: внешние, SRT, русский
Субтитры #2: внешние, SRT, английский

Код:

General
Complete name                    : G:\Мастер\The.Master.2012.BDRip.XviD.AC3.Rus.D.HQ.Underverse.avi
Format                           : AVI
Format/Info                      : Audio Video Interleave
Format profile                   : OpenDML
File size                        : 2.16 GiB
Duration                         : 2h 17mn
Overall bit rate                 : 2 252 Kbps
Writing application              : VirtualDubMod 1.5.10.2 (build 2540/release)
Writing library                  : VirtualDubMod build 2540/release

Video
ID                               : 0
Format                           : MPEG-4 Visual
Format profile                   : Streaming Video@L1
Format settings, BVOP            : Yes
Format settings, QPel            : No
Format settings, GMC             : No warppoints
Format settings, Matrix          : Custom
Muxing mode                      : Packed bitstream
Codec ID                         : XVID
Codec ID/Hint                    : XviD
Duration                         : 2h 17mn
Bit rate                         : 1 793 Kbps
Width                            : 720 pixels
Height                           : 384 pixels
Display aspect ratio             : 1.875
Frame rate                       : 23.976 fps
Resolution                       : 24 bits
Colorimetry                      : 4:2:0
Scan type                        : Progressive
Bits/(Pixel*Frame)               : 0.270
Stream size                      : 1.72 GiB (80%)
Writing library                  : XviD 64

Audio
ID                               : 1
Format                           : AC-3
Format/Info                      : Audio Coding 3
Codec ID                         : 2000
Duration                         : 2h 17mn
Bit rate mode                    : Constant
Bit rate                         : 448 Kbps
Channel(s)                       : 6 channels
Channel positions                : Front: L C R, Surround: L R, LFE
Sampling rate                    : 48.0 KHz
Stream size                      : 441 MiB (20%)
Alignment                        : Split accross interleaves
Interleave, duration             : 42 ms (1.00 video frame)
Interleave, preload duration     : 500 ms

General
Complete name                    : G:\Мастер\The.Master.2012.BDRip.XviD.AC3.Rus.D.HQ.Underverse.RUS.SERBIN.ac3
Format                           : AC-3
Format/Info                      : Audio Coding 3
File size                        : 441 MiB
Duration                         : 2h 17mn
Overall bit rate                 : 448 Kbps

Audio
Format                           : AC-3
Format/Info                      : Audio Coding 3
Duration                         : 2h 17mn
Bit rate mode                    : Constant
Bit rate                         : 448 Kbps
Channel(s)                       : 6 channels
Channel positions                : Front: L C R, Surround: L R, LFE
Sampling rate                    : 48.0 KHz
Stream size                      : 441 MiB (100%)

General
Complete name                    : G:\Мастер\The.Master.2012.BDRip.XviD.AC3.Rus.D.HQ.Underverse.ENG.ac3
Format                           : AC-3
Format/Info                      : Audio Coding 3
File size                        : 441 MiB
Duration                         : 2h 17mn
Overall bit rate                 : 448 Kbps

Audio
Format                           : AC-3
Format/Info                      : Audio Coding 3
Duration                         : 2h 17mn
Bit rate mode                    : Constant
Bit rate                         : 448 Kbps
Channel(s)                       : 6 channels
Channel positions                : Front: L C R, Surround: L R, LFE
Sampling rate                    : 48.0 KHz
Stream size                      : 441 MiB (100%)

picpicpic
Для увеличения картинки щелкните мышкой по превью

Этот торрент недоступен для скачивания без регистрации, однако доступен по публичной magnet-ссылке (источники с публичных трекеров). Перед использованием ссылки прочтите, пожалуйста Пользовательское соглашение, а также как можно дольше оставайтесь на раздаче! Для того, чтобы скачать сам торрент-файл (который видит больше источников), а также для того, чтобы поблагодарить релизера, вам необходимо зарегистрироваться. Если регистрироваться лень - вы можете также попробовать скачать релиз по нашим партнерским ссылкам ниже.

[underverse.su].t25501.torrent
Трекер: Зарегистрирован   [ 28.03.2013 12:04 ]  

Статус: проверено (by Паукан at 29.03.2013 12:16)
Поблагодарили: 3 человека
Тип торрента: публичный - доступные источники с открытых трекеров: 
Размер: 2,16 GB (занимает 0,49 DVDR, для записи нужно 1 болванка DVDR/RW)
 
 
Похожие темы
Форум Тема Автор Торрент Отв. Посл. сооб.
Зарубежное кино [DVDRip, Low-Res HDRip, и т.д.] Мастер / The Master (Пол Томас Андерсон) [2012 г., драма, HDRip] Dub RG NewCinema
0 | 0

0 | 1469

81

13.03.2013 08:26

Зарубежное кино [DVDRip, Low-Res HDRip, и т.д.] Мастер / The Master (Пол Томас Андерсон) [2012 г., драма, HDRip] Dub 90ytr90
2 | 0

0 | 486

32

13.03.2013 14:36

Зарубежное кино [DVDRip, Low-Res HDRip, и т.д.] Мастер / The Master (Пол Томас Андерсон / Paul Thomas Anderson) [2012 г., драма, BDRip] Dub Gaarochi
1 | 0

0 | 1092

19

25.03.2013 09:30

Зарубежное кино [DVDRip, Low-Res HDRip, и т.д.] Мастер / The Master (Пол Томас Андерсон) [2012 г., драма, BDRip-AVC] Dub + AVO + Original Чертёнок
8 | 0

0 | 536

12

20.04.2013 15:51

Зарубежное кино [DVDRip, Low-Res HDRip, и т.д.] Мастер / The Master (Пол Томас Андерсон) [2012 г., драма, BDRip-AVC] Dub (Rus) + AVO (Сербин) + MVO (Ukr) + Original (Eng) + Sub (Rus, Eng) 90ytr90
18 | 0

0 | 535

4

25.02.2015 16:27

# Зарубежное кино [DVDRip, Low-Res HDRip, и т.д.] Мастер / The Master (Сюй Хаофэн) [2015 г., боевик, исторический, DVDRip] VO makkol
5 | 1

1 | 843

66

14.09.2015 13:22

goshade2 

30-Мар-2013 13:14

я так и не понял о чем это
дрянь какая-то
отказать!

al.docs 

03-Апр-2013 12:11

Спасибо! :beer:

Яндекс.Метрика powered by Sphinx


В Н И М А Н И Е
Сайт не распространяет и не хранит электронные версии произведений, а лишь бесплатно и без коммерческой выгоды (не требуя взамен платы,
SMS и т.д.) предоставляет доступ к создаваемому пользователями каталогу ссылок на торрент-файлы, которые содержат только списки хеш-сумм.
Убедительная просьба с жалобами обращаться напрямую к пользователю, разместившему торрент файл.

Вверх