Loading...
Error

Телемертвецы / The Video Dead (Роберт Скотт) [1987 г., ужасы, комедия, BDRip-AVC] AVO + VO + Original

Статистика раздачи
Размер:  3,36 GB   |    Зарегистрирован:  3 года 8 месяцев   |    Скачан:  11 раз

Полного источника не было: 2 года 7 месяцев

Сидов:  0  |  0 KB/s  ]   Личеров:  0  |  0 KB/s  ]

* - сиды/пиры с внешних источников

   
 
Автор Сообщение

garry Пол:Муж

28-Мар-2013 09:59

Телемертвецы / The Video Dead


Год выпуска: 1987
Жанр: ужасы, комедия
Страна: США
Режиссер: Роберт Скотт
В ролях: Майкл Ст. Майклс, Тадеус Голас, Дуглас Белл, Аль Миллан, Роксанна Огесен, Лори-Майкл Ригетт, Джордж Кернан, Роки Дюваль, Сэм Дэвид МакКлелланд, Дженнифер Миро
Сюжет фильма:
Из-за ошибки почтовой службы телевизор, направленный в институт оккультных наук, попадает не по адресу. Если этот телевизор включить, он будет показывать только один фильм — «Кровавые кошмары зомби». Если его выключить, он все равно будет показывать этот фильм. А потом и сами зомби вылазят из телевизора. Но если делать вид, что они обыкновенные живые люди и не бояться их, то мертвецы не тронут.

  • Мировая премьера: 17 мая 2000

/
Качество видео: BDRip-AVC

Продолжительность: 01:30:24
Формат: MKV
Видео: x264, 960x520, 4480 kbps
Аудио #1: русский, одноголосый закадровый [авторский, Михалёв], AC3 2.0, 192 kbps
Аудио #2: русский, одноголосый закадровый [любительский, D.F.V], AC3 2.0, 192 kbps
Аудио #3: английский, оригинал, AC3 5.1, 448 kbps
Субтитры: тип: вшитые отключаемые, английский, формат: SRT

Код:

General
 Complete name : E:\...\The.Video.Dead.1987.BDRip.x264.AC3.Rus.Eng-E76.mkv
 Format : Matroska
 Format version : Version 2
 File size : 3.36 GiB
 Duration : 1h 30mn
 Overall bit rate : 5 313 Kbps
 Movie name : The.Video.Dead.1987.BDRip.x264.AC3.Rus.Eng-E76
 Encoded date : UTC 2013-03-27 21:40:50
 Writing application : mkvmerge v5.8.0 ('No Sleep / Pillow') built on Sep 2 2012 15:37:04
 Writing library : libebml v1.2.3 + libmatroska v1.3.0

Video
 ID : 1
 Format : AVC
 Format/Info : Advanced Video Codec
 Format profile : High@L4.1
 Format settings, CABAC : Yes
 Format settings, ReFrames : 14 frames
 Codec ID : V_MPEG4/ISO/AVC
 Duration : 1h 30mn
 Bit rate : 4 376 Kbps
 Width : 960 pixels
 Height : 520 pixels
 Display aspect ratio : 1.85:1
 Frame rate mode : Constant
 Frame rate : 23.976 fps
 Color space : YUV
 Chroma subsampling : 4:2:0
 Bit depth : 8 bits
 Scan type : Progressive
 Bits/(Pixel*Frame) : 0.366
 Stream size : 2.76 GiB (82%)
 Title : Encode by Enclave76
 Writing library : x264 core 129 r2245kMod bc13772
 Encoding settings : cabac=1 / ref=14 / deblock=1:-2:-1 / analyse=0x3:0x113 / me=umh / subme=10 / psy=1 / fade_compensate=0.00 / psy_rd=1.00:0.00 / mixed_ref=1 / me_range=32 / chroma_me=1 / trellis=2 / 8x8dct=1 / cqm=0 / deadzone=21,11 / fast_pskip=1 / chroma_qp_offset=-2 / threads=6 / lookahead_threads=1 / sliced_threads=0 / nr=0 / decimate=1 / interlaced=0 / bluray_compat=0 / constrained_intra=0 / bframes=16 / b_pyramid=2 / b_adapt=2 / b_bias=0 / direct=1 / weightb=1 / open_gop=0 / weightp=2 / keyint=240 / keyint_min=23 / scenecut=40 / intra_refresh=0 / rc_lookahead=40 / rc=crf / mbtree=0 / crf=21.1500 / qcomp=0.65 / qpmin=0 / qpmax=69 / qpstep=4 / vbv_maxrate=50000 / vbv_bufsize=62500 / crf_max=0.0 / nal_hrd=none / ip_ratio=1.40 / pb_ratio=1.15 / aq=1:1.00 / zones=124740,130037,q=30
 Language : English
 Default : No
 Forced : No
 Matrix coefficients : BT.709

Audio #1
 ID : 2
 Format : AC-3
 Format/Info : Audio Coding 3
 Mode extension : CM (complete main)
 Format settings, Endianness : Big
 Codec ID : A_AC3
 Duration : 1h 30mn
 Bit rate mode : Constant
 Bit rate : 192 Kbps
 Channel(s) : 2 channels
 Channel positions : Front: L R
 Sampling rate : 48.0 KHz
 Bit depth : 16 bits
 Compression mode : Lossy
 Stream size : 124 MiB (4%)
 Title : AVO Mikhalev
 Language : Russian
 Default : Yes
 Forced : No

Audio #2
 ID : 3
 Format : AC-3
 Format/Info : Audio Coding 3
 Mode extension : CM (complete main)
 Format settings, Endianness : Big
 Codec ID : A_AC3
 Duration : 1h 30mn
 Bit rate mode : Constant
 Bit rate : 192 Kbps
 Channel(s) : 2 channels
 Channel positions : Front: L R
 Sampling rate : 48.0 KHz
 Bit depth : 16 bits
 Compression mode : Lossy
 Stream size : 124 MiB (4%)
 Title : AVO D.F.V.
 Language : Russian
 Default : No
 Forced : No

Audio #3
 ID : 4
 Format : AC-3
 Format/Info : Audio Coding 3
 Mode extension : CM (complete main)
 Format settings, Endianness : Big
 Codec ID : A_AC3
 Duration : 1h 30mn
 Bit rate mode : Constant
 Bit rate : 448 Kbps
 Channel(s) : 6 channels
 Channel positions : Front: L C R, Side: L R, LFE
 Sampling rate : 48.0 KHz
 Bit depth : 16 bits
 Compression mode : Lossy
 Stream size : 290 MiB (8%)
 Title : Original
 Language : English
 Default : No
 Forced : No

Text
 ID : 5
 Format : UTF-8
 Codec ID : S_TEXT/UTF8
 Codec ID/Info : UTF-8 Plain Text
 Language : English
 Default : No
 Forced : No

Menu
 00:00:00.000 : en:00:00:00.000
 00:07:26.279 : en:00:07:26.279
 00:13:38.651 : en:00:13:38.651
 00:22:11.539 : en:00:22:11.539
 00:33:35.931 : en:00:33:35.931
 00:42:32.383 : en:00:42:32.383
 00:52:15.341 : en:00:52:15.341
 01:01:13.503 : en:01:01:13.503
 01:12:03.152 : en:01:12:03.152
 01:16:46.811 : en:01:16:46.811
 01:24:12.881 : en:01:24:12.881
 01:26:50.414 : en:01:26:50.414
Семпл: http://multi-up.com/847564

Релиз группы:

picpicpic
Для увеличения картинки щелкните мышкой по превью

Этот торрент недоступен для скачивания без регистрации, однако доступен по публичной magnet-ссылке (источники с публичных трекеров). Перед использованием ссылки прочтите, пожалуйста Пользовательское соглашение, а также как можно дольше оставайтесь на раздаче! Для того, чтобы скачать сам торрент-файл (который видит больше источников), а также для того, чтобы поблагодарить релизера, вам необходимо зарегистрироваться. Если регистрироваться лень - вы можете также попробовать скачать релиз по нашим партнерским ссылкам ниже.

[underverse.su].t25497.torrent
Трекер: Зарегистрирован   [ 28.03.2013 09:59 ]  

Статус: проверено (by Чертёнок at 28.03.2013 11:47)
Поблагодарили: пока никто не поблагодарил...
Тип торрента: публичный - доступные источники с открытых трекеров: 
Размер: 3,36 GB (занимает 0,77 DVDR, для записи нужно 1 болванка DVDR/RW)
 
 
Похожие темы
Форум Тема Автор Торрент Отв. Посл. сооб.
Зарубежное кино [DVD / HDDVD / BD / Remux] Телемертвецы / The Video Dead (Роберт Скотт / Robert Scott) [1987 г., ужасы, комедия, ..., DVD-5] uzi2009
0 | 0

0 | 980

0

14.01.2014 20:39


Яндекс.Метрика powered by Sphinx


В Н И М А Н И Е
Сайт не распространяет и не хранит электронные версии произведений, а лишь бесплатно и без коммерческой выгоды (не требуя взамен платы,
SMS и т.д.) предоставляет доступ к создаваемому пользователями каталогу ссылок на торрент-файлы, которые содержат только списки хеш-сумм.
Убедительная просьба с жалобами обращаться напрямую к пользователю, разместившему торрент файл.

Вверх