Loading...
Error

На исходе дня / The Remains of the Day (Джеймс Айвори) [1993 г., драма, мелодрама, HDTVRip-AVC] MVO + Original

Статистика раздачи
Размер:  4,36 GB   |    Зарегистрирован:  3 года 8 месяцев   |    Скачан:  4 раза

Полного источника не было: 2 года 8 месяцев

Сидов:  0  |  0 KB/s  ]   Личеров:  0  |  0 KB/s  ]

* - сиды/пиры с внешних источников

   
 
Автор Сообщение

garry Пол:Муж

28-Мар-2013 09:50

На исходе дня / The Remains of the Day


Год выпуска: 1993
Жанр: драма, мелодрама
Страна: Великобритания , США
Режиссер: Джеймс Айвори
В ролях: Джон Хэйкрафт, Кристофер Рив, Энтони Хопкинс, Эмма Томпсон, Кэролайн Хант, Джеймс Фокс, Питер Вон, Паула Джейкобс, Бен Чаплин, Стив Диббен
Сюжет фильма:
Стивенс — образцовый английский дворецкий, который всю жизнь провел в старинном поместье. Он отдал свое сердце беззаветному служению, и нет ничего, что может заставить его изменить долгу. Неожиданно привычное течение дней нарушается, когда в поместье появляется новая экономка, мисс Кентон.

Стивенс пытается скрыть глубокие чувства к этой женщине, но ни вековая традиция, ни священные обязанности не могут остановить вспыхнувшую любовь. И лишь теперь, на закате дней, преданный дворецкий открыл для себя тот единственный идеал, который достоин истинного служения…

  • Мировая премьера: 5 ноября 1993

/
Качество видео: HDTVRip-AVC

Продолжительность: 02:07:17
Формат: MKV
Видео: x264, 1040x442, 4000 kbps
Аудио #1: русский, многоголосый закадровый [профессиональный], AC3 5.1, 448 kbps
Аудио #2: английский, оригинал, AC3 5.1, 448 kbps
Субтитры #1: тип: вшитые отключаемые, русский, формат: SRT
Субтитры #2: тип: вшитые отключаемые, английский, формат: SRT

Код:

General
 Complete name : E:\...\The.Remains.of.the.Day.1993.HDTVRip.x264.DD5.1.Rus.Eng-E76.mkv
 Format : Matroska
 Format version : Version 2
 File size : 4.36 GiB
 Duration : 2h 8mn
 Overall bit rate : 4 854 Kbps
 Movie name : The.Remains.of.the.Day.1993.HDTVRip.x264.DD5.1.Rus.Eng-E76
 Encoded date : UTC 2013-03-23 07:47:46
 Writing application : mkvmerge v5.8.0 ('No Sleep / Pillow') built on Sep 2 2012 15:37:04
 Writing library : libebml v1.2.3 + libmatroska v1.3.0

Video
 ID : 1
 Format : AVC
 Format/Info : Advanced Video Codec
 Format profile : High@L4.1
 Format settings, CABAC : Yes
 Format settings, ReFrames : 14 frames
 Codec ID : V_MPEG4/ISO/AVC
 Duration : 2h 8mn
 Bit rate : 4 000 Kbps
 Width : 1 040 pixels
 Height : 442 pixels
 Display aspect ratio : 2.35:1
 Frame rate mode : Constant
 Frame rate : 25.000 fps
 Color space : YUV
 Chroma subsampling : 4:2:0
 Bit depth : 8 bits
 Scan type : Progressive
 Bits/(Pixel*Frame) : 0.348
 Stream size : 3.47 GiB (80%)
 Title : Encode by Enclave76
 Writing library : x264 core 129 r2245kMod bc13772
 Encoding settings : cabac=1 / ref=14 / deblock=1:-3:-3 / analyse=0x3:0x113 / me=umh / subme=11 / psy=1 / fade_compensate=0.00 / psy_rd=1.00:0.08 / mixed_ref=1 / me_range=48 / chroma_me=1 / trellis=2 / 8x8dct=1 / cqm=0 / deadzone=21,11 / fast_pskip=0 / chroma_qp_offset=-3 / threads=6 / lookahead_threads=1 / sliced_threads=0 / nr=0 / decimate=0 / interlaced=0 / bluray_compat=0 / constrained_intra=0 / bframes=16 / b_pyramid=2 / b_adapt=2 / b_bias=0 / direct=3 / weightb=1 / open_gop=0 / weightp=2 / keyint=250 / keyint_min=25 / scenecut=40 / intra_refresh=0 / rc_lookahead=120 / rc=2pass / mbtree=1 / bitrate=4000 / ratetol=1.0 / qcomp=0.70 / qpmin=0 / qpmax=69 / qpstep=4 / cplxblur=20.0 / qblur=0.5 / vbv_maxrate=50000 / vbv_bufsize=62500 / nal_hrd=none / ip_ratio=1.40 / aq=1:0.90
 Language : English
 Default : No
 Forced : No
 Matrix coefficients : BT.709

Audio #1
 ID : 2
 Format : AC-3
 Format/Info : Audio Coding 3
 Mode extension : CM (complete main)
 Format settings, Endianness : Big
 Codec ID : A_AC3
 Duration : 2h 8mn
 Bit rate mode : Constant
 Bit rate : 448 Kbps
 Channel(s) : 6 channels
 Channel positions : Front: L C R, Side: L R, LFE
 Sampling rate : 48.0 KHz
 Bit depth : 16 bits
 Compression mode : Lossy
 Stream size : 412 MiB (9%)
 Title : MVO
 Language : Russian
 Default : Yes
 Forced : No

Audio #2
 ID : 3
 Format : AC-3
 Format/Info : Audio Coding 3
 Mode extension : CM (complete main)
 Format settings, Endianness : Big
 Codec ID : A_AC3
 Duration : 2h 8mn
 Bit rate mode : Constant
 Bit rate : 448 Kbps
 Channel(s) : 6 channels
 Channel positions : Front: L C R, Side: L R, LFE
 Sampling rate : 48.0 KHz
 Bit depth : 16 bits
 Compression mode : Lossy
 Stream size : 412 MiB (9%)
 Title : Original
 Language : English
 Default : No
 Forced : No

Text #1
 ID : 4
 Format : UTF-8
 Codec ID : S_TEXT/UTF8
 Codec ID/Info : UTF-8 Plain Text
 Language : Russian
 Default : No
 Forced : No

Text #2
 ID : 5
 Format : UTF-8
 Codec ID : S_TEXT/UTF8
 Codec ID/Info : UTF-8 Plain Text
 Language : English
 Default : No
 Forced : No
Семпл: http://multi-up.com/847561

Релиз группы:

picpicpic
Для увеличения картинки щелкните мышкой по превью

Этот торрент недоступен для скачивания без регистрации, однако доступен по публичной magnet-ссылке (источники с публичных трекеров). Перед использованием ссылки прочтите, пожалуйста Пользовательское соглашение, а также как можно дольше оставайтесь на раздаче! Для того, чтобы скачать сам торрент-файл (который видит больше источников), а также для того, чтобы поблагодарить релизера, вам необходимо зарегистрироваться. Если регистрироваться лень - вы можете также попробовать скачать релиз по нашим партнерским ссылкам ниже.

[underverse.su].t25496.torrent
Трекер: Зарегистрирован   [ 28.03.2013 09:50 ]  

Статус: проверено (by Чертёнок at 28.03.2013 11:47)
Поблагодарили: пока никто не поблагодарил...
Тип торрента: публичный - доступные источники с открытых трекеров: 
Размер: 4,36 GB (занимает 1 DVDR, для записи нужно 1 болванка DVDR/RW)
 
 

Яндекс.Метрика powered by Sphinx


В Н И М А Н И Е
Сайт не распространяет и не хранит электронные версии произведений, а лишь бесплатно и без коммерческой выгоды (не требуя взамен платы,
SMS и т.д.) предоставляет доступ к создаваемому пользователями каталогу ссылок на торрент-файлы, которые содержат только списки хеш-сумм.
Убедительная просьба с жалобами обращаться напрямую к пользователю, разместившему торрент файл.

Вверх