Loading...
Error

Маньяк / Maniac (Уильям Лустиг) [1980 г., ужасы, триллер, криминал, HDRip ] AVO

Статистика раздачи
Размер:  1,46 GB   |    Зарегистрирован:  3 года 8 месяцев   |    Скачан:  10 раз

Полного источника не было: 3 года 7 месяцев

Сидов:  0  |  0 KB/s  ]   Личеров:  0  |  0 KB/s  ]

* - сиды/пиры с внешних источников

   
 
Автор Сообщение

degama Пол:Муж

25-Мар-2013 16:49

Маньяк / Maniac


Год выпуска: 1980
Жанр: ужасы, триллер, криминал
Страна: США
Режиссер: Уильям Лустиг
В ролях: Джо Спинелл, Кэролайн Манро, Эбигэйл Клэйтон, Келли Пайпер, Рита Монтон, Том Савини, Хыла Мэрроу, Джеймс Брюстер, Линда Ли Уолтер, Трейси Эванс
Сюжет фильма:
Предельно натуралистичное бытописание будней обычного американского маньяка. Монстр в человеческом обличье выслеживает женщин, жестоко их убивает, скальпирует, а «трофеи» прибивает к головам манекенов, коими изобилует его логовище. Зрелище для людей с крепкими нервами и желудками — грим Тома Савини безупречен и пугающ до отвращения. Ужас «Маньяка» таится именно в обыденности происходящего.

Оригинал ремейка. который сейчас идет в кинотеатрах страны.

Качество видео: HDRip

Продолжительность: 01:27:58
Формат: AVI
Видео: XviD, 704x384, ~2177 kbps
Аудио: русский, одноголосый закадровый [авторский](В. Штейн), AC3 2.0, ~192 kbps

Код:

ormat                           : AVI
Format/Info                      : Audio Video Interleave
File size                        : 1.46 GiB
Duration                         : 1h 27mn
Overall bit rate                 : 2 379 Kbps
Writing application              : VirtualDubMod 1.5.10.2 (build 2540/release)
Writing library                  : VirtualDubMod build 2540/release

Video
ID                               : 0
Format                           : MPEG-4 Visual
Format profile                   : Advanced Simple@L5
Format settings, BVOP            : Yes
Format settings, QPel            : No
Format settings, GMC             : No warppoints
Format settings, Matrix          : Default (MPEG)
Codec ID                         : XVID
Codec ID/Hint                    : XviD
Duration                         : 1h 27mn
Bit rate                         : 2 178 Kbps
Width                            : 704 pixels
Height                           : 384 pixels
Display aspect ratio             : 16:9
Frame rate                       : 23.976 fps
Color space                      : YUV
Chroma subsampling               : 4:2:0
Bit depth                        : 8 bits
Scan type                        : Progressive
Bits/(Pixel*Frame)               : 0.336
Stream size                      : 1.34 GiB (92%)
Writing library                  : XviD 1.2.1 (UTC 2008-12-04)

Audio
ID                               : 1
Format                           : AC-3
Format/Info                      : Audio Coding 3
Mode extension                   : CM (complete main)
Codec ID                         : 2000
Duration                         : 1h 27mn
Bit rate mode                    : Constant
Bit rate                         : 192 Kbps
Channel(s)                       : 2 channels
Channel positions                : Front: L R
Sampling rate                    : 48.0 KHz
Stream size                      : 121 MiB (8%)
Alignment                        : Split accross interleaves
Interleave, duration             : 42 ms (1.00 video frame)
Interleave, preload duration     : 500 ms
picpicpic
Для увеличения картинки щелкните мышкой по превью

Этот торрент недоступен для скачивания без регистрации, однако доступен по публичной magnet-ссылке (источники с публичных трекеров). Перед использованием ссылки прочтите, пожалуйста Пользовательское соглашение, а также как можно дольше оставайтесь на раздаче! Для того, чтобы скачать сам торрент-файл (который видит больше источников), а также для того, чтобы поблагодарить релизера, вам необходимо зарегистрироваться. Если регистрироваться лень - вы можете также попробовать скачать релиз по нашим партнерским ссылкам ниже.

[underverse.su].t25406.torrent
Трекер: Зарегистрирован   [ 25.03.2013 16:49 ]  

Статус: проверено (by Чертёнок at 26.03.2013 09:39)
Поблагодарили: пока никто не поблагодарил...
Тип торрента: публичный - доступные источники с открытых трекеров: 
Размер: 1,46 GB (занимает 0,33 DVDR, для записи нужно 1 болванка DVDR/RW)
 
 
Похожие темы
Форум Тема Автор Торрент Отв. Посл. сооб.
Зарубежное кино [DVDRip, Low-Res HDRip, и т.д.] Маньяк / Maniac (Франк Халфун) [2012 г., ужасы, триллер, криминал, DVDRip] Dub TERRAN
6 | 0

0 | 992

32

16.04.2013 06:35

Зарубежное кино [DVDRip, Low-Res HDRip, и т.д.] Маньяк / Maniac (Франк Халфун) [2012 г., ужасы, триллер, криминал, DVDRip-AVC] Dub Чертёнок
3 | 0

1 | 1138

42

21.04.2013 20:18

Зарубежное кино [DVDRip, Low-Res HDRip, и т.д.] Маньяк / Maniac (Франк Халфун / Franck Khalfoun) [2012 г., ужасы, триллер, криминал, BDRip-AVC] Dub + Original Gaarochi
16 | 0

2 | 1038

16

07.05.2013 15:45

Зарубежное кино [DVD / HDDVD / BD / Remux] Маньяк / Maniac (Франк Халфун) [2012 г., ужасы, триллер, криминал, Blu-Ray] Dub TERRAN
0 | 1

0 | 877

4

25.05.2013 15:20

Зарубежное кино [HDDVDRip / BDRip / WEB-DL / HDTV 1080/720р] Маньяк / Maniac (Франк Халфун) [2012 г., ужасы, триллер, криминал, BDRip 720p] Dub + Eng 90ytr90
1 | 0

0 | 397

4

27.04.2013 08:15

Зарубежное кино [HDDVDRip / BDRip / WEB-DL / HDTV 1080/720р] Маньяк / Maniac (Франк Халфун) [2012 г., ужасы, триллер, криминал, BDRip 1080p] Dub + Eng 90ytr90
0 | 0

0 | 404

5

27.04.2013 08:26



Последний раз редактировалось: degama (26.03.2013 00:17), всего редактировалось 2 раз(а)

25-Мар-2013 18:32

Топик был перенесен из форума Зарубежное кино HDTV в форум Зарубежное кино [DVDRip, Low-Res HDRip, и т.д.]


Чертёнок
 

Чертёнок Пол:Муж

25-Мар-2013 18:33

Качество какое? :twisted:

Яндекс.Метрика powered by Sphinx


В Н И М А Н И Е
Сайт не распространяет и не хранит электронные версии произведений, а лишь бесплатно и без коммерческой выгоды (не требуя взамен платы,
SMS и т.д.) предоставляет доступ к создаваемому пользователями каталогу ссылок на торрент-файлы, которые содержат только списки хеш-сумм.
Убедительная просьба с жалобами обращаться напрямую к пользователю, разместившему торрент файл.

Вверх