Loading...
Error

Хранители снов / Rise of the Guardians (Питер Рэмси) [2012 г., мультфильм, фэнтези, приключения, семейный, BDRip] Dub (Rus,Ukr) + Original + Subs (Rus,Ukr,Eng) HQ Underverse

Статистика раздачи
Размер:  2,18 GB   |    Зарегистрирован:  3 года 8 месяцев   |    Скачан:  52 раза
Сидов:  2  |  0 KB/s  ]   Личеров:  0  |  0 KB/s  ]

* - сиды/пиры с внешних источников

   
 
Автор Сообщение

HQ Underverse 

25-Мар-2013 15:50

Хранители снов / Rise of the Guardians


Год выпуска: 2012
Жанр: мультфильм, фэнтези, приключения, семейный
Страна: США
Режиссер: Питер Рэмси
Роли озвучивали: Крис Пайн, Алек Болдуин, Джуд Лоу, Айла Фишер, Хью Джекман, Дакота Гойо, Хамани Гриффин, Камиль МакФедден, Джорджи Грив, Эмили Нордвинд
Сюжет фильма:
Когда злой дух Кромешник посягает на самое дорогое — детские мечты, Северянин, Ледяной Джек, Кролик, Зубная Фея и Песочный Человек впервые объединяются, чтобы создать команду Хранителей снов…
|
Качество видео: BDRip

Продолжительность: 01:37:11
Формат: avi
Видео: XviD, 720x400, 2294 kbps
Аудио #1: русский, дублированный [лицензия], AC3 5.1, 448 kbps
Аудио #2: английский, оригинал, AC3 5.1, 448 kbps
Аудио #3: украинский, дублированный, AC3 5.1, 448 kbps (отдельным файлом)
Субтитры #1: внешние, SRT, украинский
Субтитры #2: внешние, SRT, английский
Субтитры #3: внешние, SRT, русский

Код:

General
Complete name                    : G:\Хранители снов\Rise.Of.The.Guardians.2012.BDRip.XviD.AC3.Rus.D.Eng.O.HQ.Underverse.avi
Format                           : AVI
Format/Info                      : Audio Video Interleave
Format profile                   : OpenDML
File size                        : 2.18 GiB
Duration                         : 1h 37mn
Overall bit rate                 : 3 208 Kbps
Writing application              : VirtualDubMod 1.5.10.2 (build 2540/release)
Writing library                  : VirtualDubMod build 2540/release

Video
ID                               : 0
Format                           : MPEG-4 Visual
Format profile                   : Streaming Video@L1
Format settings, BVOP            : Yes
Format settings, QPel            : No
Format settings, GMC             : No warppoints
Format settings, Matrix          : Custom
Muxing mode                      : Packed bitstream
Codec ID                         : XVID
Codec ID/Hint                    : XviD
Duration                         : 1h 37mn
Bit rate                         : 2 294 Kbps
Width                            : 720 pixels
Height                           : 400 pixels
Display aspect ratio             : 16/9
Frame rate                       : 23.976 fps
Resolution                       : 24 bits
Colorimetry                      : 4:2:0
Scan type                        : Progressive
Bits/(Pixel*Frame)               : 0.332
Stream size                      : 1.56 GiB (72%)
Writing library                  : XviD 64

Audio #1
ID                               : 1
Format                           : AC-3
Format/Info                      : Audio Coding 3
Codec ID                         : 2000
Duration                         : 1h 37mn
Bit rate mode                    : Constant
Bit rate                         : 448 Kbps
Channel(s)                       : 6 channels
Channel positions                : Front: L C R, Surround: L R, LFE
Sampling rate                    : 48.0 KHz
Stream size                      : 311 MiB (14%)
Alignment                        : Split accross interleaves
Interleave, duration             : 42 ms (1.00 video frame)
Interleave, preload duration     : 500 ms

Audio #2
ID                               : 2
Format                           : AC-3
Format/Info                      : Audio Coding 3
Codec ID                         : 2000
Duration                         : 1h 37mn
Bit rate mode                    : Constant
Bit rate                         : 448 Kbps
Channel(s)                       : 6 channels
Channel positions                : Front: L C R, Surround: L R, LFE
Sampling rate                    : 48.0 KHz
Stream size                      : 311 MiB (14%)
Alignment                        : Split accross interleaves
Interleave, duration             : 42 ms (1.00 video frame)
Interleave, preload duration     : 500 ms

General
Complete name                    : G:\Хранители снов\Rise.Of.The.Guardians.2012.BDRip.XviD.AC3.Rus.D.Eng.O.HQ.Underverse.UKR.ac3
Format                           : AC-3
Format/Info                      : Audio Coding 3
File size                        : 311 MiB
Duration                         : 1h 37mn
Overall bit rate                 : 448 Kbps

Audio
Format                           : AC-3
Format/Info                      : Audio Coding 3
Duration                         : 1h 37mn
Bit rate mode                    : Constant
Bit rate                         : 448 Kbps
Channel(s)                       : 6 channels
Channel positions                : Front: L C R, Surround: L R, LFE
Sampling rate                    : 48.0 KHz
Stream size                      : 311 MiB (100%)

Релиз группы:

picpicpic
Для увеличения картинки щелкните мышкой по превью

Этот торрент недоступен для скачивания без регистрации, однако доступен по публичной magnet-ссылке (источники с публичных трекеров). Перед использованием ссылки прочтите, пожалуйста Пользовательское соглашение, а также как можно дольше оставайтесь на раздаче! Для того, чтобы скачать сам торрент-файл (который видит больше источников), а также для того, чтобы поблагодарить релизера, вам необходимо зарегистрироваться. Если регистрироваться лень - вы можете также попробовать скачать релиз по нашим партнерским ссылкам ниже.

[underverse.su].t25404.torrent
Трекер: Зарегистрирован   [ 25.03.2013 15:50 ]  

Статус: проверено (by HQ Underverse at 25.03.2013 15:50)
Поблагодарили: 2 человека
Тип торрента: публичный - доступные источники с открытых трекеров: 
Размер: 2,18 GB (занимает 1/2 DVDR, для записи нужно 1 болванка DVDR/RW)
 
 
Похожие темы
Форум Тема Автор Торрент Отв. Посл. сооб.
Зарубежное кино [DVDRip, Low-Res HDRip, и т.д.] Хранители / Watchmen (Зак Снайдер) [2009 г., фантастика, боевик, триллер, драма, DVDRip (AC3 5.1)] RuLaN
0 | 0

11 | 3405

51

11.08.2009 19:19

Зарубежное кино [DVDRip, Low-Res HDRip, и т.д.] Хранители / Watchmen (Зак Снайдер) [2009 г., фантастика, боевик, детектив, BDRip] Dub goldrin
0 | 0

2 | 1522

9

08.06.2013 11:37

Наше кино [DVDRip, Low-Res HDRip, и т.д.] Хранители сети (Дмитрий Матов) [2010 г., фантастика, боевик, мелодрама, приключения, DVDRip] eXtatik
0 | 0

0 | 1018

16

03.06.2011 10:12

Зарубежные мультфильмы Хранители снов / Rise of the Guardians (Питер Рэмси) [2012 г., мультфильм, фэнтези, приключения, семейный, BDRip] Dub 90ytr90
9 | 0

0 | 1469

81

21.03.2013 14:35

Зарубежные мультфильмы Хранители снов / Rise of the Guardians (Питер Рэмси) [2012 г., мультфильм, фэнтези, приключения, семейный, BDRip] Dub 90ytr90
3 | 0

0 | 595

15

21.03.2013 14:45

Зарубежные мультфильмы Хранители снов / Rise of the Guardians (Питер Рэмси) [2012 г., мультфильм, фэнтези, приключения, семейный, BDRip] Dub + Eng 90ytr90
2 | 0

2 | 684

43

15.05.2013 21:15

Научно-популярные фильмы Хранители земли леопарда (1-5 серии из 5) [2016 г., документальный, научно-познавательный, флора, фауна, WEB-DL 720p] ARI71
0 | 0

0 | 400

6

11.02.2016 12:54

Научно-популярные фильмы Хранители дикой природы / Keeper of the Wilderness (Роберт Райхл, Эрик Балаж) [2010 г., документальный, природа, флора, фауна, SatRip] Dub + Original (Slo) ARI71
1 | 0

0 | 419

1

02.09.2016 16:08

Релизы Хранители 2: Последний Секрет Ордена / The Keepers 2: The Order's Last Secret CE [2013 г., Квест, поиск предметов, головоломка] RUS [L] Чертёнок
3 | 0

0 | 1998

16

25.02.2013 12:06

* Архив Хранители / Watchmen (Зак Снайдер) [2009 г., фантастика, боевик, триллер, драма, DVDRip] ZondeR

8 | 1645

29.08.2010 23:52

Shyryp Пол:Муж

30-Мар-2013 09:03

Как мульт?

bredd82 Пол:Муж

30-Мар-2013 09:04

хороший мульт,советую

Яндекс.Метрика powered by Sphinx


В Н И М А Н И Е
Сайт не распространяет и не хранит электронные версии произведений, а лишь бесплатно и без коммерческой выгоды (не требуя взамен платы,
SMS и т.д.) предоставляет доступ к создаваемому пользователями каталогу ссылок на торрент-файлы, которые содержат только списки хеш-сумм.
Убедительная просьба с жалобами обращаться напрямую к пользователю, разместившему торрент файл.

Вверх