Loading...
Error

Агент особого назначения 4 / Серии: 1-8 (8) (Андрей Элинсон) [2013, детектив, боевик, криминал , SATRip]

Статистика раздачи
Размер:  5 GB   |    Зарегистрирован:  3 года 7 месяцев   |    Скачан:  13 раз

Полного источника не было: 2 года

Сидов:  0  |  0 KB/s  ]   Личеров:  0  |  0 KB/s  ]

* - сиды/пиры с внешних источников

   
 
Автор Сообщение

nemos Пол:Муж

25-Мар-2013 09:23

Агент особого назначения 4


Год выпуска: 2013
Жанр: Детектив, боевик, криминал
Страна: Россия
Режиссер: Андрей Элинсон
В ролях: Сергей Перегудов, Владимир Матвеев, Михаил Трясоруков, Дмитрий Аверин, Ольга Павловец, Янина Соколовская (III), Лев Елисеев, Юрий Ковалёв, Роман Кочержевский, Зоя Буряк, Евгения Игумнова, Олег Алмазов, Елена Радевич, Семен Сытник, Тихон Жизневский, Владимир Кебин, Александр Поляков (II), Константин Анисимов, Владимир Постников, Сергей Мигицко, Сергей Кушаков, Валентин Цзин, Николай Горшков, Игорь Волков (II), Юрий Евдокимов, Александр Куйкка, Денис Зайцев, Валерий Чебурканов, Антон Сычев, Антон Юрьев, Владислав Резник
Сюжет фильма:
Бесчисленные подвиги Барабанова на благо отчизны, наконец, вознаграждены. Ему решено предоставить собственную комфортабельную квартиру, правда, ведомственную, но из родимой коммуналки он перебирается туда с восторгом. Одно «но» царапает душу специального агента: в своей старой квартире ему приходится оставить Шурку, соседку, с которой они прожили рядом столько лет. Но служба, есть служба...


Качество видео: SatRip

Продолжительность: 00:44:43 серия
Формат: AVI
Видео: XviD, 720x400 , 1800 kbps
Аудио: русский, MP3 2.0, 192 kbps

Код:

F:\С underverse-3 Фильмы\Agent-4.2013.XviD.SATRip.Files-x\Agent-4.(01.seriya).2013.XviD.SATRip.Files-x.avi
   General
      Complete name : F:\С underverse-3 Фильмы\Agent-4.2013.XviD.SATRip.Files-x\Agent-4.(01.seriya).2013.XviD.SATRip.Files-x.avi
      Format : AVI
      Format/Info : Audio Video Interleave
      File size : 640 MiB
      Duration : 44mn 43s
      Overall bit rate : 2 001 Kbps
      Writing application : VirtualDubModRus 1.5.10.2 (build 2540/release)
      Writing library : VirtualDubMod build 2540/release
   Video #0
      ID : 0
      Format : MPEG-4 Visual
      Format profile : Advanced Simple@L5
      Format settings, BVOP : 1
      Format settings, QPel : No
      Format settings, GMC : No warppoints
      Format settings, Matrix : Default (H.263)
      Codec ID : XVID
      Codec ID/Hint : XviD
      Duration : 44mn 43s
      Bit rate : 1 800 Kbps
      Width : 720 pixels
      Height : 400 pixels
      Display aspect ratio : 16:9
      Frame rate : 25.000 fps
      Color space : YUV
      Chroma subsampling : 4:2:0
      Bit depth : 8 bits
      Scan type : Progressive
      Compression mode : Lossy
      Bits/(Pixel*Frame) : 0.250
      Stream size : 576 MiB (90%)
      Writing library : XviD 1.2.1 (UTC 2008-12-04)
   Audio #1
      ID : 1
      Format : MPEG Audio
      Format version : Version 1
      Format profile : Layer 3
      Codec ID : 55
      Codec ID/Hint : MP3
      Duration : 44mn 43s
      Bit rate mode : Constant
      Bit rate : 192 Kbps
      Channel(s) : 2 channels
      Sampling rate : 48.0 KHz
      Compression mode : Lossy
      Stream size : 61.4 MiB (10%)
      Alignment : Aligned on interleaves
      Interleave, duration : 40 ms (1.00 video frame)
      Interleave, preload duration : 504 ms
      Writing library : LAME3.98r
      Encoding settings : -m s -V 4 -q 2 -lowpass 18.6 -b 192
Семпл: http://multi-up.com/846631

picpicpicpicpicpicpicpicpicpicpicpicpicpic
Для увеличения картинки щелкните мышкой по превью
Сериал который был выложен и зарегистрирован более двух месяцев назад буду раздавать с 23.00ч до 06.00ч утра ( вина в этом немоя, а пользователей которые неподдерживают раздачу)

Этот торрент недоступен для скачивания без регистрации, однако доступен по публичной magnet-ссылке (источники с публичных трекеров). Перед использованием ссылки прочтите, пожалуйста Пользовательское соглашение, а также как можно дольше оставайтесь на раздаче! Для того, чтобы скачать сам торрент-файл (который видит больше источников), а также для того, чтобы поблагодарить релизера, вам необходимо зарегистрироваться. Если регистрироваться лень - вы можете также попробовать скачать релиз по нашим партнерским ссылкам ниже.

[underverse.su].t25939.torrent
Трекер: Зарегистрирован   [ 08.04.2013 12:38 ]  

Статус: проверено (by Чертёнок at 08.04.2013 13:26)
Поблагодарили: 3 человека
Тип торрента: публичный - доступные источники с открытых трекеров: 
Размер: 5 GB (занимает 1,14 DVDR, для записи нужно 2 болванки DVDR/RW)
 
 
Похожие темы
Форум Тема Автор Торрент Отв. Посл. сооб.
xUSSR сериалы Агент особого назначения 2 ( Наталья Савченко) [2011 г., боевик, комедия, детектив, SatRip] vovk
0 | 0

1 | 834

4

09.10.2011 17:52

xUSSR сериалы Агент особого назначения 3 [1-16 серий из 16] (Андрей Элинсон) [2012 г., Детектив, SatRip] H. Ledger
0 | 0

0 | 504

12

11.06.2012 06:21


Яндекс.Метрика powered by Sphinx


В Н И М А Н И Е
Сайт не распространяет и не хранит электронные версии произведений, а лишь бесплатно и без коммерческой выгоды (не требуя взамен платы,
SMS и т.д.) предоставляет доступ к создаваемому пользователями каталогу ссылок на торрент-файлы, которые содержат только списки хеш-сумм.
Убедительная просьба с жалобами обращаться напрямую к пользователю, разместившему торрент файл.

Вверх