Loading...
Error

Москва слезам не верит (Владимир Меньшов) [1979 г., драма, мелодрама, комедия, BDRip-AVC]

Статистика раздачи
Размер:  2,18 GB   |    Зарегистрирован:  3 года 8 месяцев   |    Скачан:  40 раз

Полного источника не было: 1 месяц 1 день

Сидов:  0  |  0 KB/s  ]   Личеров:  0  |  0 KB/s  ]

* - сиды/пиры с внешних источников

   
 
Автор Сообщение

garry Пол:Муж

24-Мар-2013 22:38

Москва слезам не верит


Год выпуска: 1979
Жанр: драма, мелодрама, комедия
Страна: СССР
Режиссер: Владимир Меньшов
В ролях: Вера Алентова, Ирина Муравьёва, Алексей Баталов, Раиса Рязанова, Александр Фатюшин, Борис Сморчков, Виктор Уральский, Валентина Ушакова, Юрий Васильев, Евгения Ханаева
Сюжет фильма:
Москва пятидесятых годов. Три молодые провинциалки приезжают в Москву в поисках того, что ищут люди во всех столицах мира — любви, счастья и достатка. Их судьбы складываются именно так, как предполагает характер каждой из девушек.

Антонина выходит замуж, растит детей, любит мужа. Людмиле Москва представляется лотереей, в которой она должна выиграть свое особенное счастье. Катерина же — отчаянно влюбляется, но избранник ее оставляет. Однако она не опускает руки, в одиночку растит дочь и к тому же успевает сделать блестящую карьеру. В сорок лет судьба дарит ей встречу с прекрасным человеком и настоящую любовь…

  • Мировая премьера: 11 февраля 1980


Качество видео: BDRip-AVC

Продолжительность: 02:28:17
Формат: MKV
Видео: x264, 944x716, 1911 kbps
Аудио: русский, оригинал, AC3 2.0, 192 kbps

Код:

Общее
 Уникальный идентификатор : 176987060552804983838861069814148430824 (0x852677CCCD2D07058AE2B065BCD8FBE8)
 Полное имя : D:\KINO\Москва слезам не верит.mkv
 Формат : Matroska
 Версия формата : Version 2
 Размер файла : 2,18 Гбайт
 Продолжительность : 2 ч. 28 м.
 Общий поток : 2105 Кбит/сек
 Дата кодирования : UTC 2012-12-29 10:28:14
 Программа кодирования : mkvmerge v4.0.0 ('The Stars were mine') сборка от Jun 6 2010 16:18:42
 Библиотека кодирования : libebml v1.0.0 + libmatroska v1.0.0

Видео
 Идентификатор : 1
 Формат : AVC
 Формат/Информация : Advanced Video Codec
 Профиль формата : High@L4.1
 Параметр CABAC формата : Да
 Параметр ReFrames формата : 8 кадров
 Идентификатор кодека : V_MPEG4/ISO/AVC
 Продолжительность : 2 ч. 28 м.
 Битрейт : 1911 Кбит/сек
 Ширина : 944 пикселя
 Высота : 716 пикселей
 Соотношение сторон : 4:3
 Частота кадров : 23,976 кадра/сек
 Цветовое пространство : YUV
 Субдискретизация насыщенности : 4:2:0
 Битовая глубина : 8 бит
 Тип развёртки : Прогрессивная
 Бит/(Пиксели*Кадры) : 0.118
 Размер потока : 1,94 Гбайт (89%)
 Библиотека кодирования : x264 core 129 r2230 1cffe9f
 Настройки программы : cabac=1 / ref=8 / deblock=1:-2:-1 / analyse=0x3:0x133 / me=umh / subme=9 / psy=1 / psy_rd=1.00:0.10 / mixed_ref=1 / me_range=16 / chroma_me=1 / trellis=2 / 8x8dct=1 / cqm=0 / deadzone=21,11 / fast_pskip=1 / chroma_qp_offset=-3 / threads=3 / lookahead_threads=1 / sliced_threads=0 / nr=0 / decimate=1 / interlaced=0 / bluray_compat=0 / constrained_intra=0 / bframes=3 / b_pyramid=2 / b_adapt=2 / b_bias=0 / direct=3 / weightb=1 / open_gop=0 / weightp=2 / keyint=240 / keyint_min=23 / scenecut=40 / intra_refresh=0 / rc_lookahead=60 / rc=2pass / mbtree=1 / bitrate=1911 / ratetol=1.0 / qcomp=0.60 / qpmin=10 / qpmax=51 / qpstep=4 / cplxblur=20.0 / qblur=0.5 / vbv_maxrate=50000 / vbv_bufsize=50000 / nal_hrd=none / ip_ratio=1.40 / aq=1:1.00
 Default : Нет
 Forced : Нет

Аудио
 Идентификатор : 2
 Формат : AC-3
 Формат/Информация : Audio Coding 3
 Расширение режима : CM (complete main)
 Идентификатор кодека : A_AC3
 Продолжительность : 2 ч. 28 м.
 Вид битрейта : Постоянный
 Битрейт : 192 Кбит/сек
 Каналы : 2 канала
 Расположение каналов : Front: L R
 Частота : 48,0 КГц
 Битовая глубина : 16 бит
 Метод сжатия : С потерями
 Размер потока : 204 Мбайт (9%)
 Default : Да
 Forced : Нет
Семпл: http://multi-up.com/809732

picpicpic
Для увеличения картинки щелкните мышкой по превью

Этот торрент недоступен для скачивания без регистрации, однако доступен по публичной magnet-ссылке (источники с публичных трекеров). Перед использованием ссылки прочтите, пожалуйста Пользовательское соглашение, а также как можно дольше оставайтесь на раздаче! Для того, чтобы скачать сам торрент-файл (который видит больше источников), а также для того, чтобы поблагодарить релизера, вам необходимо зарегистрироваться. Если регистрироваться лень - вы можете также попробовать скачать релиз по нашим партнерским ссылкам ниже.

[underverse.su].t25373.torrent
Трекер: Зарегистрирован   [ 24.03.2013 22:38 ]  

Статус: проверено (by Чертёнок at 25.03.2013 15:01)
Поблагодарили: 1 человек
Тип торрента: публичный - доступные источники с открытых трекеров: 
Размер: 2,18 GB (занимает 1/2 DVDR, для записи нужно 1 болванка DVDR/RW)
 
 
Похожие темы
Форум Тема Автор Торрент Отв. Посл. сооб.
Наше кино [DVD / HDDVD / BD / Remux] Москва слезам не верит (Владимир Меньшов) [1979 г., Лирическая комедия, мелодрама, DVD5] Khv
0 | 0

1 | 1503

5

26.07.2012 05:49

Наше кино [DVD / HDDVD / BD / Remux] Москва слезам не верит (Владимир Меньшов) [1979 , драма, мелодрама, комедия, Blu-ray disc, 1080p] uzi2009
20 | 2

0 | 612

6

08.04.2014 13:11

oksana0758 Пол:Жен

25-Мар-2013 10:58

Классный фильм!

Яндекс.Метрика powered by Sphinx


В Н И М А Н И Е
Сайт не распространяет и не хранит электронные версии произведений, а лишь бесплатно и без коммерческой выгоды (не требуя взамен платы,
SMS и т.д.) предоставляет доступ к создаваемому пользователями каталогу ссылок на торрент-файлы, которые содержат только списки хеш-сумм.
Убедительная просьба с жалобами обращаться напрямую к пользователю, разместившему торрент файл.

Вверх