Loading...
Error

Страна в SHOPe (1-9 серии из...) (Артем Аксененко, Макс Василенко) [2013 г., Комедия, скетчком, SatRip]

Статистика раздачи
Размер:  2,15 GB   |    Зарегистрирован:  4 года 7 месяцев   |    Скачан:  5 раз

Полного источника не было: 4 года 5 месяцев

Сидов:  0  |  0 KB/s  ]   Личеров:  0  |  0 KB/s  ]

* - сиды/пиры с внешних источников

   
 
Автор Сообщение

degama Пол:Муж

24-Мар-2013 05:05

Страна в SHOPe


Год выпуска: 2013
Жанр: Комедия, скетчком
Страна: Россия
Режиссер: Артем Аксененко, Макс Василенко
В ролях: Сергей Светлаков, Марина Бочкарёва, Андрей Стецюк, Татьяна Дорофеева, Евгений Шевченко
Сюжет фильма:
Раньше люди ходили в дома культуры, музеи и библиотеки. Сейчас у нас есть шикарные торговые центры. Кого только тут не встретишь: учителя, звезды шоу-бизнеса, гости из провинции, аниматоры, охранники, креативные директора, постоянные покупатели и даже сказочные существа - и все это в одном месте в одно время!

Смешные истории из жизни большого торгового центра, его покупателях и тех, кто предлагает «ненавязчивый» сервис


Качество видео: SatRip

Продолжительность: ~ 00:20:00 серия
Формат: AVI
Видео: XviD, 720x400, 1650 kbps
Аудио: русский, не требуется, MP3 2.0, 128 kbps

Код:

Видео
 Идентификатор : 0
 Формат : MPEG-4 Visual
 Профиль формата : Advanced Simple@L5
 Параметр BVOP формата : 2
 Параметр QPel формата : Нет
 Параметр GMC формата : Без точки перехода
 Параметр матрицы формата : Default (H.263)
 Режим смешивания : Сжатый битовый поток
 Идентификатор кодека : XVID
 Идентификатор кодека/Подсказка : XviD
 Продолжительность : 18 м.
 Битрейт : 1640 Кбит/сек
 Ширина : 720 пикселей
 Высота : 400 пикселей
 Соотношение сторон : 16:9
 Частота кадров : 25,000 кадров/сек
 Цветовое пространство : YUV
 Субдискретизация насыщенности : 4:2:0
 Битовая глубина : 8 бит
 Тип развёртки : Прогрессивная
 Метод сжатия : С потерями
 Бит/(Пиксели*Кадры) : 0.228
 Размер потока : 222 Мбайт (92%)
 Библиотека кодирования : XviD 64

Аудио
 Идентификатор : 1
 Формат : MPEG Audio
 Версия формата : Version 1
 Профиль формата : Layer 3
 Режим : Joint stereo
 Расширение режима : MS Stereo
 Идентификатор кодека : 55
 Идентификатор кодека/Подсказка : MP3
 Продолжительность : 18 м.
 Вид битрейта : Постоянный
 Битрейт : 128 Кбит/сек
 Каналы : 2 канала
 Частота : 48,0 КГц
 Метод сжатия : С потерями
 Размер потока : 17,4 Мбайт (7%)
 Выравнивание : Разделение по промежуткам
 Продолжительность промежутка : 40 мс. (1,00 видеокадр)
 Время предзагрузки промежутка : 500 мс.
Внимание!
Раздача ведётся путём добавления новых серий; при каждом добавлении создётся новый торрент. Чтобы начать докачку новой серии, пользователям необходимо сделать следующее:
(1) остановить скачивание,
(2) удалить старый торрент у себя из клиента (старые серии удалять не надо),
(3) скачать новый торрент и запустить его у себя в клиенте вместо старого, при этом указать клиенту путь в старую папку куда и должно происходить скачивание новых серий.
Ваш клиент при этом должен произвести хеширование (проверку) старой папки (если не производит сам - помогите ему сделать это), и будет докачивать только те серии которых у вас ещё нет. Старые серии при этом не удаляются, а продолжают раздаваться!
Eсли вы уже удалили старые серии, то предотвратить повторную закачку старых серий можно, отжав галочку в соответсвующих местах при запуске нового торрента. По возможности, желательно не удалять старые серии как можно дольше чтобы релизёр не столько продолжал раздавать старые серии, а смог сконцентрироваться на новых.
picpicpicpicpic
Для увеличения картинки щелкните мышкой по превью

Этот торрент недоступен для скачивания без регистрации, однако доступен по публичной magnet-ссылке (источники с публичных трекеров). Перед использованием ссылки прочтите, пожалуйста Пользовательское соглашение, а также как можно дольше оставайтесь на раздаче! Для того, чтобы скачать сам торрент-файл (который видит больше источников), а также для того, чтобы поблагодарить релизера, вам необходимо зарегистрироваться. Если регистрироваться лень - вы можете также попробовать скачать релиз по нашим партнерским ссылкам ниже.

[underverse.su].t25348.torrent
Трекер: Зарегистрирован   [ 07.04.2013 05:45 ]  

Статус: проверено (by Чертёнок at 07.04.2013 05:48)
Поблагодарили: 2 человека
Тип торрента: публичный - доступные источники с открытых трекеров: 
Размер: 2,15 GB (занимает 0,49 DVDR, для записи нужно 1 болванка DVDR/RW)
 
 


Последний раз редактировалось: degama (07.04.2013 05:44), всего редактировалось 3 раз(а)

24-Мар-2013 09:36

Топик был перенесен из форума TV Series в форум xUSSR сериалы


dj_maxx
 

degama Пол:Муж

29-Мар-2013 10:05

Добавлена 8-я серия

degama Пол:Муж

07-Апр-2013 05:46

Добавлена девятая серия

Яндекс.Метрика powered by Sphinx


В Н И М А Н И Е
Сайт не распространяет и не хранит электронные версии произведений, а лишь бесплатно и без коммерческой выгоды (не требуя взамен платы,
SMS и т.д.) предоставляет доступ к создаваемому пользователями каталогу ссылок на торрент-файлы, которые содержат только списки хеш-сумм.
Убедительная просьба с жалобами обращаться напрямую к пользователю, разместившему торрент файл.

Вверх