Loading...
Error

Риддл / Riddle (Джон О. Хартман / John O. Hartman) [2013 г., молодежный триллер, HDRip] DVO

Статистика раздачи
Размер:  1,46 GB   |    Зарегистрирован:  3 года 8 месяцев   |    Скачан:  16 раз

Полного источника не было: 2 года 5 месяцев

Сидов:  0  |  0 KB/s  ]   Личеров:  0  |  0 KB/s  ]

* - сиды/пиры с внешних источников

   
 
Автор Сообщение

Gaarochi Пол:Муж

22-Мар-2013 20:45

Риддл / Riddle


Год выпуска: 2013
Жанр: молодежный триллер
Страна: США
Режиссер: Джон О. Хартман / John O. Hartman
В ролях: Элизабет Арнуа, Вэл Килмер, Диора Бэрд, Уильям Сэдлер, Райан Малгарини, Брайан Лиллис, Бен Бледсо, Джэк Эрди, Рик Эпплгейт, Тимоти Бреслин


Сюжет фильма:
Молодая девушка Холли Теллер попадает в город Риддл, пытаясь найти своего пропавшего брата. Когда шериф города отказывается продолжать поиски мальчика, Холли пытается самостоятельно разгадать тайну его исчезновения и понять, что связывает его с заброшенной психиатрической лечебницей. То, что предстоит узнать Холли, навсегда изменит ее жизнь.

  • Мировая премьера: 10 января 2013






Качество видео: HDRip

Продолжительность: 01:39:40
Формат: AVI
Видео: XviD, 720x400, ~1706 kbps avg
Аудио: русский, двухголосый закадровый [любительский], AC3 5.1, ~384 kbps

Код:

Общее
 Полное имя : C:\Users\С\Videos\Riddle.2013.1.46Gb.WEB-DLRip.avi
 Формат : AVI
 Формат/Информация : Audio Video Interleave
 Размер файла : 1,46 Гбайт
 Продолжительность : 1 ч. 39 м.
 Общий поток : 2100 Кбит/сек
 Программа кодирования : VirtualDubMod 1.5.10.3 | www.virtualdub-fr.org || (build 2550/release)
 Библиотека кодирования : VirtualDubMod build 2550/release

Видео
 Идентификатор : 0
 Формат : MPEG-4 Visual
 Профиль формата : Advanced Simple@L5
 Параметр BVOP формата : 2
 Параметр QPel формата : Нет
 Параметр GMC формата : Без точки перехода
 Параметр матрицы формата : Default (H.263)
 Идентификатор кодека : XVID
 Идентификатор кодека/Подсказка : XviD
 Продолжительность : 1 ч. 39 м.
 Битрейт : 1706 Кбит/сек
 Ширина : 720 пикселей
 Высота : 400 пикселей
 Соотношение сторон : 16:9
 Частота кадров : 23,976 кадра/сек
 Цветовое пространство : YUV
 Субдискретизация насыщенности : 4:2:0
 Битовая глубина : 8 бит
 Тип развёртки : Прогрессивная
 Метод сжатия : С потерями
 Бит/(Пиксели*Кадры) : 0.247
 Размер потока : 1,19 Гбайт (81%)
 Библиотека кодирования : XviD 1.2.1 (UTC 2008-12-04)

Аудио
 Идентификатор : 1
 Формат : AC-3
 Формат/Информация : Audio Coding 3
 Расширение режима : CM (complete main)
 Параметр Endianness формата : Big
 Идентификатор кодека : 2000
 Продолжительность : 1 ч. 39 м.
 Вид битрейта : Постоянный
 Битрейт : 384 Кбит/сек
 Каналы : 6 каналов
 Расположение каналов : Front: L C R, Side: L R, LFE
 Частота : 48,0 КГц
 Битовая глубина : 16 бит
 Метод сжатия : С потерями
 Размер потока : 274 Мбайт (18%)
 Выравнивание : Разделение по промежуткам
 Продолжительность промежутка : 42 мс. (1,00 видеокадр)
 Время предзагрузки промежутка : 500 мс.

picpicpic
Для увеличения картинки щелкните мышкой по превью

Этот торрент недоступен для скачивания без регистрации, однако доступен по публичной magnet-ссылке (источники с публичных трекеров). Перед использованием ссылки прочтите, пожалуйста Пользовательское соглашение, а также как можно дольше оставайтесь на раздаче! Для того, чтобы скачать сам торрент-файл (который видит больше источников), а также для того, чтобы поблагодарить релизера, вам необходимо зарегистрироваться. Если регистрироваться лень - вы можете также попробовать скачать релиз по нашим партнерским ссылкам ниже.

[underverse.su].t25325.torrent
Трекер: Зарегистрирован   [ 22.03.2013 20:45 ]  

Статус: проверено (by Чертёнок at 22.03.2013 20:51)
Поблагодарили: 3 человека
Тип торрента: публичный - доступные источники с открытых трекеров: 
Размер: 1,46 GB (занимает 0,33 DVDR, для записи нужно 1 болванка DVDR/RW)
 
 
Похожие темы
Форум Тема Автор Торрент Отв. Посл. сооб.
Зарубежное кино [DVDRip, Low-Res HDRip, и т.д.] Риддл / Riddle (Джон О. Хартман, Николас Мросс) [2013 г., триллер, WEB-DLRip] DVO 90ytr90
160 | 8

0 | 1479

21

13.03.2013 15:59



Последний раз редактировалось: Gaarochi (31.03.2013 17:06), всего редактировалось 2 раз(а)

иван26 

23-Мар-2013 05:08

Спасибо Посмотрим! :)

Gaarochi Пол:Муж

23-Мар-2013 06:43

Приятного просмотра!

BlackPanther Пол:Муж

02-Апр-2013 08:49

Спасибо. Оценим.

Яндекс.Метрика powered by Sphinx


В Н И М А Н И Е
Сайт не распространяет и не хранит электронные версии произведений, а лишь бесплатно и без коммерческой выгоды (не требуя взамен платы,
SMS и т.д.) предоставляет доступ к создаваемому пользователями каталогу ссылок на торрент-файлы, которые содержат только списки хеш-сумм.
Убедительная просьба с жалобами обращаться напрямую к пользователю, разместившему торрент файл.

Вверх