Loading...
Error

Американская Мэри / American Mary (Джен Соска / Jen Soska, Сильвия Соска / Sylvia Soska) [2012 г., ужасы, триллер, HDRip] DVO

Статистика раздачи
Размер:  1,46 GB   |    Зарегистрирован:  3 года 8 месяцев   |    Скачан:  6 раз

Полного источника не было: 26 дней

Сидов:  0  |  0 KB/s  ]   Личеров:  0  |  0 KB/s  ]

* - сиды/пиры с внешних источников

   
 
Автор Сообщение

Gaarochi Пол:Муж

22-Мар-2013 15:58

Американская Мэри / American Mary


Год выпуска: 2012
Жанр: ужасы, триллер
Страна: Канада
Режиссер: Джен Соска / Jen Soska, Сильвия Соска / Sylvia Soska
В ролях: Кэтрин Изабель, Антонио Цупо, Тристан Риск, Дэвид Ловгрен, Паула Линдберг, Клэй Ст. Томас, Джон Эммет Трэйси, Твэн Холлидэй, Нельсон Вонг, Сильвия Соска, Джен Соска, Пол Энтони
Сюжет фильма:
Фильм расскажет нам историю Мэри Мэнсон, которая работает в салоне, специализирующемся на модификации тела человека. Вскоре она понимает что ей нравится уродовать тела и клиентов салона ей становится мало. Она решает уродовать людей на свой вкус, без их согласия.

  • Мировая премьера: 27 августа 2012


Качество видео: HDRip

Продолжительность: 01:42:24
Формат: AVI
Видео: XviD, 720x304 , 1641 kbps
Аудио: русский, двухголосый закадровый [любительский][den904 и DeadSno], AC3 5.1, 384 kbps

Код:

General
 Complete name : F:\Amerikanskaja.mary.2012.L2.HDRip.1400.avi
 Format : AVI
 Format/Info : Audio Video Interleave
 File size : 1.46 GiB
 Duration : 1h 42mn
 Overall bit rate : 2 035 Kbps
 Writing application : VirtualDubMod 1.5.10.2 (build 2540/release)
 Writing library : VirtualDubMod build 2540/release

Video
 ID : 0
 Format : MPEG-4 Visual
 Format profile : Advanced Simple@L5
 Format settings, BVOP : 2
 Format settings, QPel : No
 Format settings, GMC : No warppoints
 Format settings, Matrix : Default (H.263)
 Muxing mode : Packed bitstream
 Codec ID : XVID
 Codec ID/Hint : XviD
 Duration : 1h 42mn
 Bit rate : 1 641 Kbps
 Width : 720 pixels
 Height : 304 pixels
 Display aspect ratio : 2.35:1
 Frame rate : 23.976 fps
 Color space : YUV
 Chroma subsampling : 4:2:0
 Bit depth : 8 bits
 Scan type : Progressive
 Compression mode : Lossy
 Bits/(Pixel*Frame) : 0.313
 Stream size : 1.17 GiB (81%)
 Writing library : XviD 63

Audio
 ID : 1
 Format : AC-3
 Format/Info : Audio Coding 3
 Mode extension : CM (complete main)
 Codec ID : 2000
 Duration : 1h 42mn
 Bit rate mode : Constant
 Bit rate : 384 Kbps
 Channel(s) : 6 channels
 Channel positions : Front: L C R, Side: L R, LFE
 Sampling rate : 48.0 KHz
 Bit depth : 16 bits
 Compression mode : Lossy
 Stream size : 281 MiB (19%)
 Alignment : Split accross interleaves
 Interleave, duration : 42 ms (1.00 video frame)
 Interleave, preload duration : 500 ms
Семпл: http://multi-up.com/829440

picpicpicpic
Для увеличения картинки щелкните мышкой по превью

Этот торрент недоступен для скачивания без регистрации, однако доступен по публичной magnet-ссылке (источники с публичных трекеров). Перед использованием ссылки прочтите, пожалуйста Пользовательское соглашение, а также как можно дольше оставайтесь на раздаче! Для того, чтобы скачать сам торрент-файл (который видит больше источников), а также для того, чтобы поблагодарить релизера, вам необходимо зарегистрироваться. Если регистрироваться лень - вы можете также попробовать скачать релиз по нашим партнерским ссылкам ниже.

[underverse.su].t25310.torrent
Трекер: Зарегистрирован   [ 22.03.2013 15:58 ]  

Статус: проверено (by Чертёнок at 22.03.2013 16:51)
Поблагодарили: пока никто не поблагодарил...
Тип торрента: публичный - доступные источники с открытых трекеров: 
Размер: 1,46 GB (занимает 1/3 DVDR, для записи нужно 1 болванка DVDR/RW)
 
 
Похожие темы
Форум Тема Автор Торрент Отв. Посл. сооб.
Зарубежное кино [DVDRip, Low-Res HDRip, и т.д.] Американская история Х / American History X (Тони Кей / Tony Kaye) [1998 г., драма, криминал, BDRip-AVC] MVO (West Video) + Original (Eng) + Sub (Rus, Eng) M-i-i-i-ke
22 | 1

2 | 1545

2

22.02.2016 19:48

Зарубежное кино [DVDRip, Low-Res HDRip, и т.д.] Американский бизон / American Buffalo (Майкл Корренте / Michael Corrente) [1996 г., драма, экранизация, HDRip] DVO + AVO (П.Карцев) 90ytr90
6 | 0

0 | 759

1

26.11.2016 08:10

Зарубежное кино [DVDRip, Low-Res HDRip, и т.д.] Американский пирог: Все в сборе / American Reunion (Джон Харвитц, Хейден Шлоссберг) [2012 г., комедия, BDRip] WeaSel
1 | 0

0 | 740

24

08.08.2012 19:57

Зарубежное кино [DVDRip, Low-Res HDRip, и т.д.] Американский боевой корабль / American Warships (Тандер Левин) [2012 г., боевик, HDRip] MVO [SyFy] + Original RG NewCinema
0 | 0

0 | 1106

47

21.10.2012 20:15

Зарубежное кино [DVDRip, Low-Res HDRip, и т.д.] Американская Мэри / American Mary (Джен Соска, Сильвия Соска) [2012 г., ужасы, триллер, DVDRip] DVO [den904, DeadSno] RG NewCinema
7 | 0

3 | 1529

33

31.01.2013 12:21

Зарубежное кино [DVDRip, Low-Res HDRip, и т.д.] Американская карусель / Roundabout American (Борис Уэкслер) [2012 г., комедия, SATRip] DVO Паукан
1 | 0

0 | 1579

13

14.05.2013 13:10

Зарубежное кино [DVDRip, Low-Res HDRip, и т.д.] Американская карусель / Roundabout American (Борис Уэкслер) [2012 г., комедия, HDTVRip] MVO RG NewCinema
8 | 0

0 | 1369

22

23.05.2013 11:21

Зарубежное кино [DVDRip, Low-Res HDRip, и т.д.] Американская Мэри / American Mary (Джен Соска, Сильвия Соска) [2012 г., Ужасы, BDRip-AVC] DVO (RUS, Влад & Снежинка) + Original (ENG) + Subs (RUS, ENG) Ведьмочка
13 | 0

0 | 612

3

23.08.2014 17:19

Зарубежное кино [DVDRip, Low-Res HDRip, и т.д.] Американская Мэри / American Mary (Джен Соска, Сильвия Соска) [2012 г., Ужасы, BDRip-AVC] DVO (RUS, Влад & Снежинка) + Original (ENG) + Subs (RUS, ENG) Ведьмочка
9 | 0

0 | 641

1

23.08.2014 17:22

Зарубежное кино [DVDRip, Low-Res HDRip, и т.д.] Американская сила / American Muscle (Рави Дхар) [2014 г., Боевик, BDRip-AVC] VO (RUS, ХиХиДок) + Original (ENG) Ведьмочка
6 | 2

0 | 438

6

28.09.2014 23:44


Яндекс.Метрика powered by Sphinx


В Н И М А Н И Е
Сайт не распространяет и не хранит электронные версии произведений, а лишь бесплатно и без коммерческой выгоды (не требуя взамен платы,
SMS и т.д.) предоставляет доступ к создаваемому пользователями каталогу ссылок на торрент-файлы, которые содержат только списки хеш-сумм.
Убедительная просьба с жалобами обращаться напрямую к пользователю, разместившему торрент файл.

Вверх