Loading...
Error

Агент Хамилтон: Похищенная / Агент Хамилтон 2: Если только это не касается вашей дочери / Hamilton: Men inte om det galler din dotter (Тобиаш Фальк / Tobias Falk) [2012 г., Экшн, драма, триллер, BDRip] MVO

Статистика раздачи
Размер:  1,37 GB   |    Зарегистрирован:  3 года 8 месяцев   |    Скачан:  20 раз

Полного источника не было: 7 месяцев

Сидов:  0  |  0 KB/s  ]   Личеров:  0  |  0 KB/s  ]

* - сиды/пиры с внешних источников

   
 
Автор Сообщение

Gaarochi Пол:Муж

22-Мар-2013 12:24

Агент Хамилтон: Похищенная / Агент Хамилтон 2: Если только это не касается вашей дочери / Hamilton 2: Men inte om det galler din dotter


Год выпуска: 2012
Жанр: Экшн, драма, триллер
Страна: Швеция
Режиссер: Тобиаш Фальк / Tobias Falk
В ролях: Микаэл Персбрандт, Стивен Вэддингтон, Джон Лайт, Frida Hallgren, Дэвид Ринтул, Кэл Макэнинк, Питер Эггерс, Милинд Соман, Найджел Уитми, Саба Мубарак


Сюжет фильма:
Хамилтон — специальный агент, призванный решать самые невыполнимые задачи. Он всегда защищал интересы своей страны. Но когда его крестная дочь оказывается похищенной представителями ближневосточного нефтяного магната и правительство не предпринимает никаких шагов к ее освобождению, Хамилтон решает вернуть ее домой своими силами. Вместе с друзьями ему предстоит вступить в схватку с вооруженной до зубов армией и взять штурмом крепость в пустыне. Оружие уже заряжено, а Агент Хамилтон никогда не терпит поражений.

  • Мировая премьера: 7 сентября 2012
  • Российская премьера: 25 марта 2013, «Новый Диск»






Качество видео: BDRip

Продолжительность: 01:29:47
Формат: AVI
Видео: XviD, 720x304, ~1977 kbps avg
Аудио: русский, многоголосый закадровый [профессиональный], AC3 2.0, ~192 kbps

Код:

General
 Complete name : D:\Gamiljton.2.2012.P.HDRip.avi
 Format : AVI
 Format/Info : Audio Video Interleave
 File size : 1.37 GiB
 Duration : 1h 29mn
 Overall bit rate : 2 179 Kbps
 Writing application : VirtualDubMod 1.5.10.2 (build 2540/release)
 Writing library : VirtualDubMod build 2540/release

Video
 ID : 0
 Format : MPEG-4 Visual
 Format profile : Advanced Simple@L5
 Format settings, BVOP : 2
 Format settings, QPel : No
 Format settings, GMC : No warppoints
 Format settings, Matrix : Default (MPEG)
 Muxing mode : Packed bitstream
 Codec ID : XVID
 Codec ID/Hint : XviD
 Duration : 1h 29mn
 Bit rate : 1 977 Kbps
 Width : 720 pixels
 Height : 304 pixels
 Display aspect ratio : 2.35:1
 Frame rate : 24.000 fps
 Color space : YUV
 Chroma subsampling : 4:2:0
 Bit depth : 8 bits
 Scan type : Progressive
 Compression mode : Lossy
 Bits/(Pixel*Frame) : 0.376
 Stream size : 1.24 GiB (91%)
 Writing library : XviD 1.2.1 (UTC 2008-12-04)

Audio
 ID : 1
 Format : AC-3
 Format/Info : Audio Coding 3
 Mode extension : CM (complete main)
 Format settings, Endianness : Big
 Codec ID : 2000
 Duration : 1h 29mn
 Bit rate mode : Constant
 Bit rate : 192 Kbps
 Channel(s) : 2 channels
 Channel positions : Front: L R
 Sampling rate : 48.0 KHz
 Bit depth : 16 bits
 Compression mode : Lossy
 Stream size : 123 MiB (9%)
 Alignment : Split accross interleaves
 Interleave, duration : 42 ms (1.00 video frame)
 Interleave, preload duration : 500 ms

picpicpicpic
Для увеличения картинки щелкните мышкой по превью

Этот торрент недоступен для скачивания без регистрации, однако доступен по публичной magnet-ссылке (источники с публичных трекеров). Перед использованием ссылки прочтите, пожалуйста Пользовательское соглашение, а также как можно дольше оставайтесь на раздаче! Для того, чтобы скачать сам торрент-файл (который видит больше источников), а также для того, чтобы поблагодарить релизера, вам необходимо зарегистрироваться. Если регистрироваться лень - вы можете также попробовать скачать релиз по нашим партнерским ссылкам ниже.

[underverse.su].t25290.torrent
Трекер: Зарегистрирован   [ 22.03.2013 12:24 ]  

Статус: проверено (by Паукан at 22.03.2013 12:35)
Поблагодарили: 2 человека
Тип торрента: публичный - доступные источники с открытых трекеров: 
Размер: 1,37 GB (занимает 0,31 DVDR, для записи нужно 1 болванка DVDR/RW)
 
 
Похожие темы
Форум Тема Автор Торрент Отв. Посл. сооб.
Зарубежное кино [HDDVDRip / BDRip / WEB-DL / HDTV 1080/720р] Агент Хамилтон: Похищенная / Hamilton 2: Men inte om det galler din dotter (Тобиас Фальк) [2012 г., боевик, триллер, драма, BDRip 720p] MVO + Original Чертёнок
0 | 1

0 | 357

4

01.04.2013 21:39

ROMARIOSSO Пол:Муж

02-Апр-2013 19:51

СПАСИБО! :good:

А как фильмец? :roll:

Gaarochi Пол:Муж

03-Апр-2013 17:50

ROMARIOSSO писал(а):

СПАСИБО! :good:

А как фильмец? :roll:
Фильмец не плохой :good:

Яндекс.Метрика powered by Sphinx


В Н И М А Н И Е
Сайт не распространяет и не хранит электронные версии произведений, а лишь бесплатно и без коммерческой выгоды (не требуя взамен платы,
SMS и т.д.) предоставляет доступ к создаваемому пользователями каталогу ссылок на торрент-файлы, которые содержат только списки хеш-сумм.
Убедительная просьба с жалобами обращаться напрямую к пользователю, разместившему торрент файл.

Вверх